Голая правда / The Ugly Truth (Роберт Лукетич / Robert Luketic) [2009 г., комедия, мелодрама, BDRip-AVC] Dubbing + Original (Eng) + Subs (Rus,Eng)

Ответить на тему
 
Автор Сообщение

user ®

Стаж: 7 лет 7 месяцев

Сообщений: 20008

Пост Пост: #1 от 07-Окт-2009 18:20

[Цитировать]

-Голая правда / The Ugly Truth-Слоган: «Мужские ценности против Женских идеалов»-Год выпуска: 2009
Страна: США
Жанр: Комедия, мелодрама
Продолжительность:
01:35:57
Перевод: Профессиональный (полное дублирование)
Cубтитры: русские, аглийские--Режиссер: Роберт Лукетич / Robert Luketic
Сценарий: Кимберли Ди Бонавентура / Kimberly di Bonaventura, Кэтрин Хайгл / Katherine Heigl, Нэнси Хейл / Nancy Heigl
Оператор: Рассел Карпентер / Russell Carpenter
Композитор: Аарон Зигман / Aaron Zigman
В ролях: Кэтрин Хайгл / Katherine Heigl, Джерард Батлер / Gerard Butler, Бри Тернер / Bree Turner, Эрик Винтер / Eric Winter, Ник Сирси / Nick Searcy, Джесси Д. Гойнс / Jesse D. Goins, Шерил Хайнс / Cheryl Hines, Джон Майкл Хиггинс / John Michael Higgins, Ной Мэтьюз / Noah Matthews, Бонни Соммервиль / Bonnie Somerville...
--
--Она — успешный телепродюсер со строгими моральными принципами и сексуальная блондинка. Он восходящая звезда нового телешоу и его жизненное кредо — «секс, наркотики и рок-н-ролл», он совсем не признает равенство полов, политкорректность и так далее… В общем настоящий мачо. Вы думаете, у них может что-то получиться?-Качество: BDRip-AVC
Формат: Matroska
Видеокодек: AVC | Аудиокодек: AC3-Видео: 1280x528 (2.40:1); 2363 Kbps; 23,976 fps; 0,146 bpp
Аудио №1: Russian; AC3; 448 Kbps; 48Hz: CBR; 6 ch
Аудио №2: English: AC3; 384 Kbps; 48Hz: CBR; 6 ch
Субтитры №1: UTF-8; Russian
Субтитры №2: UTF-8; English
-> SAMPLE Multi-UP.com<-
-> SAMPLE narod.ru <--

Скриншот с названием

- -

mediainfo

General
Complete name : D:\-=DC=-\The Ugly Truth_BDRip-AVC.AC3.mkv
Format : Matroska
File size : 2.19 GiB
Duration : 1h 35mn
Overall bit rate : 3 260 Kbps
Encoded date : UTC 2010-12-27 02:11:07
Writing application : mkvmerge v3.4.0 ('Rapunzel') сборка от May 22 2010 21:59:32
Writing library : libebml v0.8.1 + libmatroska v0.9.0
Cover : Yes / Yes
Video
ID : 1
Format : AVC
Format/Info : Advanced Video Codec
Format profile : High@L4.0
Format settings, CABAC : Yes
Format settings, ReFrames : 9 frames
Muxing mode : Container profile=Unknown@4.0
Codec ID : V_MPEG4/ISO/AVC
Duration : 1h 35mn
Bit rate : 2 363 Kbps
Width : 1 280 pixels
Height : 528 pixels
Display aspect ratio : 2.40:1
Frame rate : 23.976 fps
Color space : YUV
Chroma subsampling : 4:2:0
Bit depth : 8 bits
Scan type : Progressive
Bits/(Pixel*Frame) : 0.146
Stream size : 1.58 GiB (72%)
Title : AVC; 1280x528 (2.424); 2325 Kbps; 23,976 fps; 0,144 bpp
Writing library : x264 core 79 r1342 e8501ef
Encoding settings : cabac=1 / ref=9 / deblock=1:-2:-1 / analyse=0x3:0x113 / me=umh / subme=10 / psy=1 / psy_rd=1.0:0.0 / mixed_ref=1 / me_range=32 / chroma_me=1 / trellis=2 / 8x8dct=1 / cqm=0 / deadzone=21,11 / chroma_qp_offset=-2 / threads=6 / nr=0 / decimate=1 / mbaff=0 / constrained_intra=0 / bframes=7 / b_pyramid=2 / b_adapt=2 / b_bias=0 / direct=1 / wpredb=1 / wpredp=2 / keyint=250 / keyint_min=25 / scenecut=45 / rc=crf / mbtree=0 / crf=19.4 / qcomp=0.60 / qpmin=10 / qpmax=51 / qpstep=4 / ip_ratio=1.40 / pb_ratio=1.30 / aq=1:1.00
Language : English
Matrix coefficients : BT.709-5, BT.1361, IEC 61966-2-4 709, SMPTE RP177
Audio #1
ID : 2
Format : AC-3
Format/Info : Audio Coding 3
Mode extension : CM (complete main)
Codec ID : A_AC3
Duration : 1h 35mn
Bit rate mode : Constant
Bit rate : 448 Kbps
Channel(s) : 6 channels
Channel positions : Front: L C R, Side: L R, LFE
Sampling rate : 48.0 KHz
Bit depth : 16 bits
Stream size : 307 MiB (14%)
Title : Dubbing
Language : Russian
Audio #2
ID : 3
Format : AC-3
Format/Info : Audio Coding 3
Mode extension : CM (complete main)
Codec ID : A_AC3
Duration : 1h 35mn
Bit rate mode : Constant
Bit rate : 384 Kbps
Channel(s) : 6 channels
Channel positions : Front: L C R, Side: L R, LFE
Sampling rate : 48.0 KHz
Bit depth : 16 bits
Stream size : 264 MiB (12%)
Title : English
Language : English
Text #1
ID : 4
Format : UTF-8
Codec ID : S_TEXT/UTF8
Codec ID/Info : UTF-8 Plain Text
Title : Russian
Language : Russian
Text #2
ID : 5
Format : UTF-8
Codec ID : S_TEXT/UTF8
Codec ID/Info : UTF-8 Plain Text
Title : English
Language : English
Скачать

Скачать торрент!

Как скачивать? · Что такое торрент? · Рейтинг и ограничения

Сайт не распространяет и не хранит электронные версии произведений, а лишь предоставляет доступ к создаваемому пользователями каталогу ссылок на торрент-файлы, которые содержат только списки хеш-сумм



Последний раз редактировалось: user (2009-11-12 00:47), всего редактировалось 2 раз(а)
[Профиль] [ЛС]

gordons

Стаж: 7 лет 1 месяц

Сообщений: 1

Пост Пост: #2 от 30-Окт-2009 18:57 (спустя 23 дня)

[Цитировать]

отличный фильм!
шото этот трекер очень сильно напоминает мне другой трекер...
af
[Профиль] [ЛС]

user ®

Стаж: 7 лет 7 месяцев

Сообщений: 20008

Пост Пост: #3 от 12-Ноя-2009 00:51 (спустя 12 дней)

[Цитировать]

Перезалил в HDRip
[Профиль] [ЛС]
Показать сообщения:    
Ответить на тему

Текущее время: Сегодня 20:39

Часовой пояс: GMT + 4



Вы не можете начинать темы
Вы не можете отвечать на сообщения
Вы не можете редактировать свои сообщения
Вы не можете удалять свои сообщения
Вы не можете голосовать в опросах
Вы не можете прикреплять файлы к сообщениям
Вы не можете скачивать файлы