(Downtempo, Ambient) Hol Baumann - Human [Ultimae Records] - 2008, FLAC (tracks), lossless

Ответить на тему
 
Автор Сообщение

user ®

Стаж: 10 лет

Сообщений: 18988

Пост Пост: #1 от 07-Окт-2009 17:50

[Цитировать]

Hol Baumann - Human [Ultimae Records]
Страна: France
Жанр: Downtempo, Ambient
Год выпуска: 2008
Формат: FLAC (tracks)
Битрейт аудио: lossless
Продолжительность: 61:41
Трэклист:
1. Hours (5:43)
2. Breathe (5:58)
3. Radio Bombay (6:08)
4. Benares (Vârânaçî edit) (8:07)
5. Endless Park (3:19)
6. Human (6:04)
7. One Step Behind (7:09)
8. We Are Analog (5:43)
9. A Forgotten Ritual (13:30)
Доп. информация:
Release: 2008-02-21
Label: Ultimae Records
Catalog#: INRE 030
Credits: Mastered By - Huby Sea
Mastered By, Artwork By - Vincent Villuis
Written-By, Producer, Composed By - Olivier Orand
Источник: waffles, user tarafel

EAC log

Exact Audio Copy V0.99 prebeta 3 from 28. July 2007
EAC extraction logfile from 25. February 2008, 13:01
Hol Bauman / Human
Used drive : TSSTcorpCD/DVDW SH-W162C Adapter: 1 ID: 0
Read mode : Secure
Utilize accurate stream : Yes
Defeat audio cache : Yes
Make use of C2 pointers : No
Read offset correction : 6
Overread into Lead-In and Lead-Out : No
Fill up missing offset samples with silence : Yes
Delete leading and trailing silent blocks : No
Null samples used in CRC calculations : Yes
Used interface : Installed external ASPI interface
Gap handling : Appended to previous track
Used output format : User Defined Encoder
Selected bitrate : 128 kBit/s
Quality : High
Add ID3 tag : No
Command line compressor : C:\Program\Exact Audio Copy\Flac\bin\flac.exe
Additional command line options : -8 -A tukey(0.25) -A gauss(0.1875) -b 4096 -V -T "artist=%a" -T "title=%t" -T "album=%g" -T "date=%y" -T "tracknumber=%n" -T "genre=%m" %s --sector-align
TOC of the extracted CD
Track | Start | Length | Start sector | End sector
---------------------------------------------------------
1 | 0:00.00 | 5:42.56 | 0 | 25705
2 | 5:42.56 | 5:57.66 | 25706 | 52546
3 | 11:40.47 | 6:07.74 | 52547 | 80145
4 | 17:48.46 | 8:06.49 | 80146 | 116644
5 | 25:55.20 | 3:18.61 | 116645 | 131555
6 | 29:14.06 | 6:04.06 | 131556 | 158861
7 | 35:18.12 | 7:08.60 | 158862 | 191021
8 | 42:26.72 | 5:43.30 | 191022 | 216776
9 | 48:10.27 | 13:29.49 | 216777 | 277500
Track 1
Filename D:\Flac Backup\Hol Baumann - 2008 - Human\01 - Hol Bauman - 01.Hours.wav
Pre-gap length 0:00:02.00
Peak level 92.2 %
Track quality 100.0 %
Test CRC DE05F8AA
Copy CRC DE05F8AA
Track not present in AccurateRip database
Copy OK
Track 2
Filename D:\Flac Backup\Hol Baumann - 2008 - Human\02 - Hol Bauman - 02.Breathe.wav
Peak level 92.2 %
Track quality 100.0 %
Test CRC C6BBC3D8
Copy CRC C6BBC3D8
Track not present in AccurateRip database
Copy OK
Track 3
Filename D:\Flac Backup\Hol Baumann - 2008 - Human\03 - Hol Bauman - 03.Radio Bombay.wav
Peak level 92.2 %
Track quality 100.0 %
Test CRC A67C9CE8
Copy CRC A67C9CE8
Track not present in AccurateRip database
Copy OK
Track 4
Filename D:\Flac Backup\Hol Baumann - 2008 - Human\04 - Hol Bauman - 04.Benares (Varanaci Edit).wav
Peak level 92.2 %
Track quality 100.0 %
Test CRC 6EC2FB7A
Copy CRC 6EC2FB7A
Track not present in AccurateRip database
Copy OK
Track 5
Filename D:\Flac Backup\Hol Baumann - 2008 - Human\05 - Hol Bauman - 05.Endless Park.wav
Peak level 92.2 %
Track quality 100.0 %
Test CRC 9638BA8E
Copy CRC 9638BA8E
Track not present in AccurateRip database
Copy OK
Track 6
Filename D:\Flac Backup\Hol Baumann - 2008 - Human\06 - Hol Bauman - 06.[Human].wav
Peak level 98.0 %
Track quality 100.0 %
Test CRC D9E66B98
Copy CRC D9E66B98
Track not present in AccurateRip database
Copy OK
Track 7
Filename D:\Flac Backup\Hol Baumann - 2008 - Human\07 - Hol Bauman - 07.One Step Behind.wav
Peak level 92.2 %
Track quality 100.0 %
Test CRC 3926C524
Copy CRC 3926C524
Track not present in AccurateRip database
Copy OK
Track 8
Filename D:\Flac Backup\Hol Baumann - 2008 - Human\08 - Hol Bauman - 08.We Are Analog.wav
Peak level 92.2 %
Track quality 100.0 %
Test CRC 2C06C649
Copy CRC 2C06C649
Track not present in AccurateRip database
Copy OK
Track 9
Filename D:\Flac Backup\Hol Baumann - 2008 - Human\09 - Hol Bauman - 09.A Forgotten Ritual.wav
Peak level 92.2 %
Track quality 100.0 %
Test CRC 3119ED44
Copy CRC 3119ED44
Track not present in AccurateRip database
Copy OK
None of the tracks are present in the AccurateRip database
No errors occurred
End of status report

Audiochecker log

AUDIOCHECKER v2.0 beta (build 457) - by Dester - opdester@freemail.hu
~~~~~~~~~~~~~~~~~~~~~~~~~~~~~~~~~~
-=== DO NOT EDIT THIS FILE! ===-
Path: ...\Hol Baumann - 2008 - Human
1 -=- 01 - Hol Bauman - 01.Hours.flac -=- CDDA (100%)
2 -=- 02 - Hol Bauman - 02.Breathe.flac -=- CDDA (100%)
3 -=- 03 - Hol Bauman - 03.Radio Bombay.flac -=- CDDA (100%)
4 -=- 04 - Hol Bauman - 04.Benares (Varanaci Edit).flac -=- CDDA (100%)
5 -=- 05 - Hol Bauman - 05.Endless Park.flac -=- CDDA (54%)
6 -=- 06 - Hol Bauman - 06.[Human].flac -=- CDDA (100%)
7 -=- 07 - Hol Bauman - 07.One Step Behind.flac -=- CDDA (100%)
8 -=- 08 - Hol Bauman - 08.We Are Analog.flac -=- CDDA (100%)
9 -=- 09 - Hol Bauman - 09.A Forgotten Ritual.flac -=- CDDA (99%)
Summary 94,78% CDDA
25625332
Скачать

Скачать торрент!

Как скачивать? · Что такое торрент? · Рейтинг и ограничения

Сайт не распространяет и не хранит электронные версии произведений, а лишь предоставляет доступ к создаваемому пользователями каталогу ссылок на торрент-файлы, которые содержат только списки хеш-сумм

загрузка...
[Профиль] [ЛС]
Показать сообщения:    
Ответить на тему

Текущее время: Сегодня 17:07

Часовой пояс: GMT + 4



Вы не можете начинать темы
Вы не можете отвечать на сообщения
Вы не можете редактировать свои сообщения
Вы не можете удалять свои сообщения
Вы не можете голосовать в опросах
Вы не можете прикреплять файлы к сообщениям
Вы не можете скачивать файлы