(Breakbeat/Electronic/Breaks) The Crystal Method - Divided By Night - 2009, FLAC (tracks), lossless

Ответить на тему
 
Автор Сообщение

user ®

Стаж: 10 лет

Сообщений: 18988

Пост Пост: #1 от 07-Окт-2009 01:02

[Цитировать]

The Crystal Method
Жанр: Breakbeat/Electronic/Breaks
Год выпуска диска: 2009
Производитель диска: USA
Аудио кодек: FLAC
Тип рипа: tracks
Битрейт аудио: lossless
Продолжительность: 1:06:44
Трэклист
01. Divided By Night (4:55)
02. Dirty Thirty (Featuring Peter Hook) (5:24)
03. Drown In The Now (Featuring Matisyahu) (5:47)
04. Kling To The Wreckage (Featuring Justin Warfield) (4:04)
05. Smile (5:33)
06. Sine Language (Featuring LMFAO) (6:14)
07. Double Down Under (5:49)
08. Come Back Clean (Featuring Emily Haines) (4:57)
09. Slipstream (Featuring Jason Lytle) (5:18)
10. Black Rainbows (Featuring Stephanie King Warfield) (6:20)
11. Blunts & Robots (Featuring Peter Hook) (5:48)
12. Falling Hard (Featuring Meiko) (6:35)

LOG

Exact Audio Copy V0.99 prebeta 5 from 4. May 2009
EAC extraction logfile from 15. May 2009, 9:59
The Crystal Method / Divided By Night
Used drive : ATAPI iHAS222 8 Adapter: 5 ID: 0
Read mode : Secure
Utilize accurate stream : Yes
Defeat audio cache : Yes
Make use of C2 pointers : No
Read offset correction : 6
Overread into Lead-In and Lead-Out : No
Fill up missing offset samples with silence : Yes
Delete leading and trailing silent blocks : No
Null samples used in CRC calculations : Yes
Used interface : Native Win32 interface for Win NT & 2000
Gap handling : Appended to previous track
Used output format : User Defined Encoder
Selected bitrate : 128 kBit/s
Quality : High
Add ID3 tag : Yes
Command line compressor : C:\Program Files\FLAC\flac.exe
Additional command line options : -V -8 -T "artist=%a" -T "title=%t" -T "album=%g" -T "date=%y" -T "tracknumber=%n" -T "genre=%m" %s
TOC of the extracted CD
Track | Start | Length | Start sector | End sector
---------------------------------------------------------
1 | 0:00.00 | 5:00.72 | 0 | 22571
2 | 5:00.72 | 5:24.12 | 22572 | 46883
3 | 10:25.09 | 5:47.01 | 46884 | 72909
4 | 16:12.10 | 4:04.12 | 72910 | 91221
5 | 20:16.22 | 5:33.59 | 91222 | 116255
6 | 25:50.06 | 6:14.46 | 116256 | 144351
7 | 32:04.52 | 5:49.05 | 144352 | 170531
8 | 37:53.57 | 4:57.17 | 170532 | 192823
9 | 42:50.74 | 5:18.23 | 192824 | 216696
10 | 48:09.22 | 6:20.59 | 216697 | 245255
11 | 54:30.06 | 5:48.38 | 245256 | 271393
12 | 60:18.44 | 6:35.40 | 271394 | 301058
Track 1
Filename C:\Documents and Settings\User\Desktop\TCM - DBN (2009) [FLAC]\01 - Divided By Night.wav
Pre-gap length 0:00:02.00
Peak level 98.8 %
Track quality 100.0 %
Test CRC 7AEB8C5F
Copy CRC 7AEB8C5F
Copy OK
Track 2
Filename C:\Documents and Settings\User\Desktop\TCM - DBN (2009) [FLAC]\02 - Dirty Thirty (feat Peter Hook).wav
Peak level 98.8 %
Track quality 100.0 %
Test CRC 523E155F
Copy CRC 523E155F
Copy OK
Track 3
Filename C:\Documents and Settings\User\Desktop\TCM - DBN (2009) [FLAC]\03 - Drown In The Now (feat Matisyahu).wav
Peak level 98.8 %
Track quality 99.9 %
Test CRC B95B4A0A
Copy CRC B95B4A0A
Copy OK
Track 4
Filename C:\Documents and Settings\User\Desktop\TCM - DBN (2009) [FLAC]\04 - Kling To The Wreckage (feat Justin Warfield).wav
Peak level 98.8 %
Track quality 100.0 %
Test CRC 37E2B0AF
Copy CRC 37E2B0AF
Copy OK
Track 5
Filename C:\Documents and Settings\User\Desktop\TCM - DBN (2009) [FLAC]\05 - Smile .wav
Peak level 98.8 %
Track quality 100.0 %
Test CRC 508584C0
Copy CRC 508584C0
Copy OK
Track 6
Filename C:\Documents and Settings\User\Desktop\TCM - DBN (2009) [FLAC]\06 - Sine Language (feat LMFAO).wav
Peak level 99.9 %
Track quality 100.0 %
Test CRC EADBAB60
Copy CRC EADBAB60
Copy OK
Track 7
Filename C:\Documents and Settings\User\Desktop\TCM - DBN (2009) [FLAC]\07 - Double Down Under.wav
Peak level 98.8 %
Track quality 100.0 %
Test CRC E96DCA66
Copy CRC E96DCA66
Copy OK
Track 8
Filename C:\Documents and Settings\User\Desktop\TCM - DBN (2009) [FLAC]\08 - Come Back Clean (feat Emily Haines).wav
Peak level 98.8 %
Track quality 100.0 %
Test CRC 45F72D2F
Copy CRC 45F72D2F
Copy OK
Track 9
Filename C:\Documents and Settings\User\Desktop\TCM - DBN (2009) [FLAC]\09 - Slipstream (feat Jason Lytle).wav
Peak level 98.8 %
Track quality 100.0 %
Test CRC 70C0933B
Copy CRC 70C0933B
Copy OK
Track 10
Filename C:\Documents and Settings\User\Desktop\TCM - DBN (2009) [FLAC]\10 - Black Rainbows (feat Stefanie King Warfield).wav
Peak level 98.8 %
Track quality 100.0 %
Test CRC 853A87C1
Copy CRC 853A87C1
Copy OK
Track 11
Filename C:\Documents and Settings\User\Desktop\TCM - DBN (2009) [FLAC]\11 - Blunts & Robots (feat Peter Hook).wav
Peak level 98.8 %
Track quality 100.0 %
Test CRC 47770374
Copy CRC 47770374
Copy OK
Track 12
Filename C:\Documents and Settings\User\Desktop\TCM - DBN (2009) [FLAC]\12 - Falling Hard (feat Meiko).wav
Peak level 98.8 %
Track quality 100.0 %
Test CRC 82D62992
Copy CRC 82D62992
Copy OK
No errors occurred
End of status report
Скачать

Скачать торрент!

Как скачивать? · Что такое торрент? · Рейтинг и ограничения

Сайт не распространяет и не хранит электронные версии произведений, а лишь предоставляет доступ к создаваемому пользователями каталогу ссылок на торрент-файлы, которые содержат только списки хеш-сумм

загрузка...
[Профиль] [ЛС]
Показать сообщения:    
Ответить на тему

Текущее время: Сегодня 03:57

Часовой пояс: GMT + 4



Вы не можете начинать темы
Вы не можете отвечать на сообщения
Вы не можете редактировать свои сообщения
Вы не можете удалять свои сообщения
Вы не можете голосовать в опросах
Вы не можете прикреплять файлы к сообщениям
Вы не можете скачивать файлы