Геймер / Gamer (Марк Невелдайн, Брайан Тейлор / Mark Neveldine, Brian Taylor) [2009 г., фантастика, триллер,боевик, BDRip-AVC]

Ответить на тему
 
Автор Сообщение

user ®

Стаж: 7 лет 7 месяцев

Сообщений: 20008

Пост Пост: #1 от 04-Окт-2009 19:06

[Цитировать]

Геймер / Gamer
Год выпуска: 2009
Страна: США
Жанр: фантастика, триллер,боевик
Продолжительность: 01:34:47
Перевод: Профессиональный (полное дублирование)
Русские субтитры: есть
Режиссер: Марк Невелдайн, Брайан Тейлор / Mark Neveldine, Brian Taylor
В ролях: Джерард Батлер, Элисон Ломан, Майло Вентимилья, Майкл С. Холл, Джон Легуизамо, Логан Лерман, Терри Крюс, Кит Дэвид, Эмбер Валлетта, Эфрен Рамирез
Описание: Действие фильма происходит в недалёком утопическом будущем, где высочайшее развитие нанотехнологий позволило технологическому гению Кену Кастлу соединить видеоигру с реалити-шоу и смоделировать ультрафункциональную, мультиплеерную игру «Убийцы», которая стала средой обитания местных преступников.
Джон Тиллман, приговоренный к пожизненному заключению за преступление, которого не совершал, должен принять участие в Игре, чтобы получить свободу. Для одного богатого молодого игрока Джон Тиллман это — Кэйбл, всего лишь сим, управляемый персонаж игры. Благодаря своим боевым способностям и физической силе, Кэйбл становится национальным героем и занимает первые позиции в игре.
Каждую неделю миллионы людей во всём мире в режиме онлайн следят за ним и сотней других смертников, которые участвуют в битвах игры. По мнению группы мятежников, которая противостоит Кастлу, его игра — это высокотехнологичное рабство, а он является тем критическим элементом, который необходимо уничтожить. Кэйбл/Тиллман оказался между двумя мощными противоборствующими силами, которые не заинтересованы, чтобы он выжил. С каждым шагом, за которым наблюдают миллионы, Джон Тилман сражается, чтобы получить свободу, восстановить свою личность и низвергнуть систему, которая его заключила в тюрьму.
Доп. информация:
IMDB
СЭМПЛ РАЗ
СЭМПЛ ДВА
Качество: BDRip-AVC (Исх. BDRemux)
Формат: MKV
Видео кодек: H.264
Аудио кодек: AC3
Видео: 1280x688 , 23,976 кадр/сек, 2448 Кбит/сек
Аудио: AC3 384 kbps 48000 Hz 6 ch RUS
Аудио: AC3 384 kbps 48000 Hz 6 ch ENG
Субтитры: русские , украинские, английские

MediaInfo

General
Complete name : J:\GAYMER.chopper887.mkv
Format : Matroska
File size : 2.17 GiB
Duration : 1h 34mn
Overall bit rate : 3 281 Kbps
Encoded date : UTC 2010-03-06 10:08:10
Writing application : mkvmerge v3.0.0 ('Hang up your Hang-Ups') built on Dec 12 2009 15:20:35
Writing library : libebml v0.7.9 + libmatroska v0.8.1
Video
ID : 1
Format : AVC
Format/Info : Advanced Video Codec
Format profile : High@L4.1
Format settings, CABAC : Yes
Format settings, ReFrames : 8 frames
Muxing mode : Container profile=Unknown@4.1
Codec ID : V_MPEG4/ISO/AVC
Duration : 1h 34mn
Bit rate : 2 448 Kbps
Nominal bit rate : 2 514 Kbps
Width : 1 280 pixels
Height : 688 pixels
Display aspect ratio : 1.860
Frame rate : 23.976 fps
Resolution : 8 bits
Colorimetry : 4:2:0
Scan type : Progressive
Bits/(Pixel*Frame) : 0.116
Stream size : 1.62 GiB (75%)
Writing library : x264 core 80 r1376M 3feaec2
Encoding settings : cabac=1 / ref=8 / deblock=1:-2:-1 / analyse=0x3:0x113 / me=umh / subme=9 / psy=1 / psy_rd=1.0:0.1 / mixed_ref=0 / me_range=24 / chroma_me=1 / trellis=2 / 8x8dct=1 / cqm=0 / deadzone=21,11 / fast_pskip=0 / chroma_qp_offset=-3 / threads=3 / sliced_threads=0 / nr=1 / decimate=0 / mbaff=0 / constrained_intra=0 / bframes=9 / b_pyramid=0 / b_adapt=2 / b_bias=0 / direct=1 / wpredb=0 / wpredp=0 / keyint=250 / keyint_min=25 / scenecut=40 / rc_lookahead=60 / rc=2pass / mbtree=1 / bitrate=2514 / ratetol=1.0 / qcomp=0.60 / qpmin=10 / qpmax=51 / qpstep=4 / cplxblur=20.0 / qblur=0.5 / ip_ratio=1.40 / aq=1:1.00
Language : English
Audio #1
ID : 2
Format : AC-3
Format/Info : Audio Coding 3
Codec ID : A_AC3
Duration : 1h 34mn
Bit rate mode : Constant
Bit rate : 384 Kbps
Channel(s) : 6 channels
Channel positions : Front: L C R, Surround: L R, LFE
Sampling rate : 48.0 KHz
Video delay : 12ms
Stream size : 260 MiB (12%)
Audio #2
ID : 3
Format : AC-3
Format/Info : Audio Coding 3
Codec ID : A_AC3
Duration : 1h 34mn
Bit rate mode : Constant
Bit rate : 384 Kbps
Channel(s) : 6 channels
Channel positions : Front: L C R, Surround: L R, LFE
Sampling rate : 48.0 KHz
Video delay : 12ms
Stream size : 260 MiB (12%)
Text #1
ID : 4
Format : UTF-8
Codec ID : S_TEXT/UTF8
Codec ID/Info : UTF-8 Plain Text
Text #2
ID : 5
Format : UTF-8
Codec ID : S_TEXT/UTF8
Codec ID/Info : UTF-8 Plain Text
Text #3
ID : 6
Format : UTF-8
Codec ID : S_TEXT/UTF8
Codec ID/Info : UTF-8 Plain Text
Скачать

Скачать торрент!

Как скачивать? · Что такое торрент? · Рейтинг и ограничения

Сайт не распространяет и не хранит электронные версии произведений, а лишь предоставляет доступ к создаваемому пользователями каталогу ссылок на торрент-файлы, которые содержат только списки хеш-сумм



Последний раз редактировалось: user (2009-11-29 02:58), всего редактировалось 1 раз
[Профиль] [ЛС]

user ®

Стаж: 7 лет 7 месяцев

Сообщений: 20008

Пост Пост: #2 от 29-Ноя-2009 02:56 (спустя 1 месяц 24 дня)

[Цитировать]

Перезалил!
[Профиль] [ЛС]
Показать сообщения:    
Ответить на тему

Текущее время: Сегодня 20:16

Часовой пояс: GMT + 4



Вы не можете начинать темы
Вы не можете отвечать на сообщения
Вы не можете редактировать свои сообщения
Вы не можете удалять свои сообщения
Вы не можете голосовать в опросах
Вы не можете прикреплять файлы к сообщениям
Вы не можете скачивать файлы