Оставленные / Left Behind (Вик Армстронг / Vic Armstrong) [2014, США, фантастика, триллер, драма, BDRip-AVC] Dub

Ответить на тему
 
Автор Сообщение

user ®

Стаж: 7 лет 7 месяцев

Сообщений: 20008

Пост Пост: #1 от 14-Ноя-2014 09:40

[Цитировать]

Оставленные
Left Behind
«Начало конца»


Страна: США
Жанр: фантастика, триллер, драма
Год выпуска: 2014
Продолжительность: 01:45:30
Перевод: Профессиональный (полное дублирование) [Лицензия]
Cубтитры: Нет
Оригинальная аудиодорожка: нет
Режиссер:
Вик Армстронг / Vic Armstrong
В ролях:
Николас Кейдж, Чад Майкл Мюррэй, Касси Томсон, Никки Уилан, Джордин Спаркс, Лиа Томпсон, Уильям Рэгсдэйл, Лаура Кайот, Куинтон Аарон, Мартин Клебба
Описание:
История летчика Рэйфорда Стила, столкнувшегося во время рейса с исчезновением нескольких пассажиров прямо из салона самолета. Вскоре становится известно о случаях бесследного исчезновения и в других местах. Людей охватывает паника.

Релиз:
Автор рипа: Stalker oK
Сэмпл: multi-up
Качество видео: BDRip-AVC [Blu-ray RUS 1080i HDCLUB]
Формат видео: MKV
Видео кодек: AVC
Аудио кодек: AC3
Видео: 1534 Кбит/сек, 1108*464 (2,35:1), в 25,000 кадр/сек, AVC
Аудио: Russian, 448 Кбит/сек, 48,0 КГц, 16 бит, 6 канала(ов), AC-3

MediaInfo
Общее
Уникальный идентификатор : 215942591880441560489587104950208288339 (0xA27507C81AF01C3E8B779A96C80DD653)
Полное имя : L:\TEMP\Оставленные\Ostavlennye.2014.BDRip-AVC.Dub.1.45Gb...stalkerok.new-team.mkv
Формат : Matroska
Размер файла : 1,46 Гбайт
Продолжительность : 1 ч. 45 м.
Общий поток : 1983 Кбит/сек
Название фильма : Left Behind, 2014 (New-Team) (Rip by Stalker oK)
Дата кодирования : UTC 2014-11-13 16:04:08
Программа кодирования : mkvmerge v6.1.0 ('Old Devil') built on Mar 4 2013 09:10:42
Библиотека кодирования : libebml v1.3.0 + libmatroska v1.4.0
Видео
Идентификатор : 1
Формат : AVC
Формат/Информация : Advanced Video Codec
Профиль формата : High@L4.1
Параметр CABAC формата : Да
Параметр ReFrames формата : 11 кадры
Идентификатор кодека : V_MPEG4/ISO/AVC
Продолжительность : 1 ч. 45 м.
Битрейт : 1534 Кбит/сек
Ширина : 1108 пикс.
Высота : 464 пикс.
Соотношение сторон : 2,35:1
Частота кадров : 25,000 кадр/сек
Цветовое пространство : YUV
Подвыборка цветности : 4:2:0
Битовая глубина : 8 бит
Тип развёртки : Прогрессивная
Бит/(Пиксели*Кадры) : 0.119
Размер потока : 1,10 Гбайт (75%)
Библиотека кодирования : x264 core 142 r2431 ac76440
Настройки программы : cabac=1 / ref=11 / deblock=1:-3:-3 / analyse=0x3:0x133 / me=umh / subme=11 / psy=1 / psy_rd=1.00:0.10 / mixed_ref=1 / me_range=48 / chroma_me=1 / trellis=2 / 8x8dct=1 / cqm=0 / deadzone=21,11 / fast_pskip=0 / chroma_qp_offset=-3 / threads=12 / lookahead_threads=3 / sliced_threads=0 / nr=0 / decimate=0 / interlaced=0 / bluray_compat=0 / constrained_intra=0 / bframes=13 / b_pyramid=2 / b_adapt=2 / b_bias=0 / direct=3 / weightb=1 / open_gop=0 / weightp=2 / keyint=250 / keyint_min=25 / scenecut=40 / intra_refresh=0 / rc_lookahead=60 / rc=2pass / mbtree=0 / bitrate=1534 / ratetol=1.0 / qcomp=0.70 / qpmin=0 / qpmax=69 / qpstep=4 / cplxblur=20.0 / qblur=0.5 / vbv_maxrate=20000 / vbv_bufsize=25000 / nal_hrd=none / filler=0 / ip_ratio=1.25 / pb_ratio=1.15 / aq=2:0.90
Аудио
Идентификатор : 2
Формат : AC-3
Формат/Информация : Audio Coding 3
Расширение режима : CM (complete main)
Идентификатор кодека : A_AC3
Продолжительность : 1 ч. 45 м.
Вид битрейта : Постоянный
Битрейт : 448 Кбит/сек
Канал(ы) : 6 канала(ов)
Расположение каналов : Front: L C R, Side: L R, LFE
Частота : 48,0 КГц
Битовая глубина : 16 бит
Метод сжатия : С потерями
Размер потока : 338 Мбайт (23%)
Язык : Russian
Меню
00:00:00.000 : :00:00:00.000
00:10:54.680 : :00:10:54.680
00:17:05.000 : :00:17:05.000
00:24:21.680 : :00:24:21.680
00:30:13.640 : :00:30:13.640
00:40:34.360 : :00:40:34.360
00:47:51.240 : :00:47:51.240
00:55:12.640 : :00:55:12.640
01:03:48.680 : :01:03:48.680
01:11:21.080 : :01:11:21.080
01:23:02.400 : :01:23:02.400
01:30:03.120 : :01:30:03.120
Скриншоты
Скачать

Скачать торрент!

Как скачивать? · Что такое торрент? · Рейтинг и ограничения

Сайт не распространяет и не хранит электронные версии произведений, а лишь предоставляет доступ к создаваемому пользователями каталогу ссылок на торрент-файлы, которые содержат только списки хеш-сумм

[Профиль] [ЛС]
Показать сообщения:    
Ответить на тему

Текущее время: Сегодня 12:55

Часовой пояс: GMT + 4



Вы не можете начинать темы
Вы не можете отвечать на сообщения
Вы не можете редактировать свои сообщения
Вы не можете удалять свои сообщения
Вы не можете голосовать в опросах
Вы не можете прикреплять файлы к сообщениям
Вы не можете скачивать файлы