Горько! (Жора Крыжовников) [2013, Комедия, приключения, CamRip]

Ответить на тему
 
Автор Сообщение

user ®

Стаж: 7 лет 7 месяцев

Сообщений: 20008

Пост Пост: #1 от 03-Ноя-2013 21:15

[Цитировать]

Горько!«Главное не нажраться»- -Жанр: Комедия, приключения
Страна: Россия, Lunapark, Bazelevs
Год выпуска: 2013
Продолжительность: 01:32:16-Режиссёр: Жора Крыжовников-В ролях: Сергей Светлаков, Юлия Александрова, Егор Корешков, Ян Цапник, Елена Валюшкина, Василий Кортуков, Юлия Стадник, Данила Якушев, Александр Паль, Валентина Мазунина, Сергей Лавыгин-Описание: Прогрессивные и талантливые Наташа и Рома мечтают о европейской свадьбе на берегу моря… но у Наташиного отчима заготовлен другой сценарий. Грубый чиновник городской администрации рассматривает торжество как трамплин для собственной карьеры и стремится устроить все «как надо». Молодых ждет незабываемый вечер в ресторане «Золотой» с полным набором занудных обрядов. Не в силах бороться, ребята решают провести свадьбу своей мечты в секрете от консервативных родственников. Но по нелепой случайности оба торжества сливаются воедино.-Доп. информация: Дата мировой премьеры: 25 октября 2013
Дата российской премьеры: 24 октября 2013, «Bazelevs Distribution»

- -Качество видео: CamRip
Формат видео: AVI
Видео: 720x288 (2.50:1), 25 fps, XviD build 50 ~1983 kbps avg, 0.38 bit/pixel
Аудио: 48 kHz, MPEG Layer 3, 2 ch, ~128.00 kbps avg

MediaInfo

D:\Torrents\Gorko.2013.O.CAMRip.1400Mb.avi
General
Complete name : D:\Torrents\Gorko.2013.O.CAMRip.1400Mb.avi
Format : AVI
Format/Info : Audio Video Interleave
File size : 1.37 GiB
Duration : 1h 32mn
Overall bit rate mode : Variable
Overall bit rate : 2 125 Kbps
Movie name : Gorko.2013.O.CAMRip.1400Mb. СПАМ
Director : СПАМ
Genre : Comedy/Adventure
Writing application : VirtualDubMod 1.5.10.3 | www.virtualdub-fr.org || (build 2550/release)
Original source form/Name : Movie
Copyright : http:// СПАМ
Video #0
ID : 0
Format : MPEG-4 Visual
Format profile : Advanced Simple@L5
Format settings, BVOP : 2
Format settings, QPel : No
Format settings, GMC : No warppoints
Format settings, Matrix : Default (MPEG)
Codec ID : XVID
Codec ID/Hint : XviD
Duration : 1h 32mn
Bit rate : 1 984 Kbps
Width : 720 pixels
Height : 288 pixels
Display aspect ratio : 2.500
Frame rate : 25.000 fps
Color space : YUV
Chroma subsampling : 4:2:0
Bit depth : 8 bits
Scan type : Progressive
Compression mode : Lossy
Bits/(Pixel*Frame) : 0.383
Stream size : 1.28 GiB (93%)
Writing library : XviD 1.2.1 (UTC 2008-12-04)
Audio #1
ID : 1
Format : MPEG Audio
Format version : Version 1
Format profile : Layer 3
Codec ID : 55
Codec ID/Hint : MP3
Duration : 1h 32mn
Bit rate mode : Variable
Bit rate : 128 Kbps
Channel count : 2 channels
Sampling rate : 48.0 KHz
Compression mode : Lossy
Stream size : 84.5 MiB (6%)
Alignment : Aligned on interleaves
Interleave, duration : 24 ms (0.60 video frame)
Interleave, preload duration : 486 ms
Writing library : LAME3.99r
Encoding settings : -m s -V 4 -q 2 -lowpass 17 -b 128

Скриншот c названием фильма

Скриншоты

Скачать

Скачать торрент!

Как скачивать? · Что такое торрент? · Рейтинг и ограничения

Сайт не распространяет и не хранит электронные версии произведений, а лишь предоставляет доступ к создаваемому пользователями каталогу ссылок на торрент-файлы, которые содержат только списки хеш-сумм

[Профиль] [ЛС]
Показать сообщения:    
Ответить на тему

Текущее время: Сегодня 04:02

Часовой пояс: GMT + 4



Вы не можете начинать темы
Вы не можете отвечать на сообщения
Вы не можете редактировать свои сообщения
Вы не можете удалять свои сообщения
Вы не можете голосовать в опросах
Вы не можете прикреплять файлы к сообщениям
Вы не можете скачивать файлы