Дневной свет / Daglicht (Дидерик Ван Ружен / Diederik Van Rooijen) [2013, Нидерланды, триллер, BDRip 720p] VO (Вадим Белов) + Original (Dut)

Ответить на тему
 
Автор Сообщение

user ®

Стаж: 7 лет 7 месяцев

Сообщений: 20008

Пост Пост: #1 от 15-Сен-2013 17:55

[Цитировать]

Дневной свет / Daglicht Страна: Нидерланды
Жанр: триллер
Год выпуска: 2013
Продолжительность: 01:54:55
Перевод: Одноголосый закадровый [Вадим Белов]
Cубтитры: английские
Оригинальная аудиодорожка: нидерландская
Режиссер: Дидерик Ван Ружен / Diederik Van Rooijen
В ролях: Дерек де Линт, Федя ван Хюэт, Моник ван де Вен, Анжела Схяйф, Виктор Лёв, Тийс Ромер, Маттео ван дер Грийн, Йап Спийкерс, Майк Реус, Сабина Соэтанто
Описание: Успешный адвокат Ирис узнает, что её мать всю жизнь скрывала от неё один большой секрет. Оказывается, у неё есть старший брат, о существовании которого она даже не подозревала. Рэй, страдающий аутизмом, много лет назад был осужден за жестокое убийство, и теперь находится в судебно-психиатрической клинике. Проникнувшись сочувствием к своему брату, Ирис решает ему помочь, но в поисках истины ей придется столкнуться с такими препятствиями, которые изменят её жизнь навсегда.
-Качество видео: BDRip 720р [EbP]
Формат видео: MKV
Видео: x264, 1280x526 (2.40:1), 23.976 fps, 4316 kbps avg, 0.267 bit/pixel
Аудио 1: 48 kHz, AC3 Dolby Digital, 3/2 (L,C,R,l,r) + LFE ch, ~640 kbps [rus]
Аудио 2: 48 kHz, DTS, 3/2 (L,C,R,l,r) + LFE ch, 1509 kbps [dut]
Дополнительно: Сохранены BluRay чаптеры

x264@log

x264 [info]: frame I:1628 Avg QP:10.77 size:110838
x264 [info]: frame P:34927 Avg QP:12.83 size: 45935
x264 [info]: frame B:128759 Avg QP:14.50 size: 15577
x264 [info]: consecutive B-frames: 2.7% 2.5% 8.5% 9.5% 10.2% 60.9% 4.5% 1.2%
x264 [info]: mb I I16..4: 3.3% 85.1% 11.6%
x264 [info]: mb P I16..4: 0.6% 12.4% 1.0% P16..4: 29.9% 32.6% 20.2% 0.0% 0.0% skip: 3.3%
x264 [info]: mb B I16..4: 0.0% 0.6% 0.1% B16..8: 36.1% 23.1% 7.9% direct: 7.8% skip:24.4% L0:48.3% L1:40.2% BI:11.6%
x264 [info]: 8x8 transform intra:87.4% inter:42.1%
x264 [info]: direct mvs spatial:99.3% temporal:0.7%
x264 [info]: coded y,uvDC,uvAC intra: 96.5% 87.9% 78.6% inter: 39.3% 35.7% 16.7%
x264 [info]: i16 v,h,dc,p: 37% 9% 5% 48%
x264 [info]: i8 v,h,dc,ddl,ddr,vr,hd,vl,hu: 13% 10% 10% 9% 12% 12% 11% 11% 12%
x264 [info]: i4 v,h,dc,ddl,ddr,vr,hd,vl,hu: 11% 9% 3% 9% 16% 14% 14% 11% 12%
x264 [info]: i8c dc,h,v,p: 50% 22% 17% 11%
x264 [info]: Weighted P-Frames: Y:9.3% UV:5.0%
x264 [info]: ref P L0: 41.8% 6.7% 18.8% 7.6% 6.7% 4.4% 4.2% 2.3% 2.3% 1.7% 1.8% 1.4% 0.3% 0.0%
x264 [info]: ref B L0: 66.7% 13.1% 6.6% 3.7% 2.7% 2.3% 1.8% 1.2% 1.0% 0.6% 0.3%
x264 [info]: ref B L1: 92.6% 7.4%
x264 [info]: kb/s:4397.99
encoded 165314 frames, 3.06 fps, 4397.99 kb/s

MediaInfo

General
Unique ID : 208022412757478949768824147481147390992 (0x9C7FA8CD5892324D84210BE49972BC10)
Complete name : C:\My Downloads\Daglicht.2013.720p.BluRay.x264-EbP.mkv
Format : Matroska
Format version : Version 4 / Version 2
File size : 5.26 GiB
Duration : 1h 54mn
Overall bit rate : 6 550 Kbps
Movie name : Daglicht (2013) encoded by EbP
Encoded date : UTC 2013-09-15 07:49:28
Writing application : mkvmerge v6.3.0 ('You can't stop me!') built on Jun 28 2013 20:09:41
Writing library : libebml v1.3.0 + libmatroska v1.4.0
Video
ID : 1
Format : AVC
Format/Info : Advanced Video Codec
Format profile : High@L4.1
Format settings, CABAC : Yes
Format settings, ReFrames : 12 frames
Codec ID : V_MPEG4/ISO/AVC
Duration : 1h 54mn
Bit rate : 4 270 Kbps
Width : 1 280 pixels
Height : 526 pixels
Display aspect ratio : 2.40:1
Frame rate mode : Constant
Frame rate : 23.976 fps
Color space : YUV
Chroma subsampling : 4:2:0
Bit depth : 8 bits
Scan type : Progressive
Bits/(Pixel*Frame) : 0.265
Stream size : 3.43 GiB (65%)
Title : Daglicht (2013)
Language : Dutch
Default : Yes
Forced : No
Audio #1
ID : 2
Format : AC-3
Format/Info : Audio Coding 3
Mode extension : CM (complete main)
Format settings, Endianness : Big
Codec ID : A_AC3
Duration : 1h 54mn
Bit rate mode : Constant
Bit rate : 640 Kbps
Channel count : 6 channels
Channel positions : Front: L C R, Side: L R, LFE
Sampling rate : 48.0 KHz
Bit depth : 16 bits
Compression mode : Lossy
Stream size : 526 MiB (10%)
Title : [VO - Вадим Белов] AC3, 6 ch, 640 Kbps
Language : Russian
Default : Yes
Forced : No
Audio #2
ID : 3
Format : DTS
Format/Info : Digital Theater Systems
Mode : 16
Format settings, Endianness : Big
Codec ID : A_DTS
Duration : 1h 54mn
Bit rate mode : Constant
Bit rate : 1 509 Kbps
Channel count : 6 channels
Channel positions : Front: L C R, Side: L R, LFE
Sampling rate : 48.0 KHz
Bit depth : 16 bits
Compression mode : Lossy
Stream size : 1.21 GiB (23%)
Title : [Original] DTS, 6 ch, 1509 Kbps
Default : No
Forced : No
Text
ID : 4
Format : UTF-8
Codec ID : S_TEXT/UTF8
Codec ID/Info : UTF-8 Plain Text
Language : English
Default : No
Forced : No
Menu
00:00:00.000 : en:00:00:00.000
00:11:25.268 : en:00:11:25.268
00:23:57.436 : en:00:23:57.436
00:37:29.456 : en:00:37:29.456
00:49:45.983 : en:00:49:45.983
01:02:29.746 : en:01:02:29.746
01:15:53.549 : en:01:15:53.549
01:37:33.347 : en:01:37:33.347
01:52:05.719 : en:01:52:05.719

Скриншоты

Source -> Encode



Скачать

Скачать торрент!

Как скачивать? · Что такое торрент? · Рейтинг и ограничения

Сайт не распространяет и не хранит электронные версии произведений, а лишь предоставляет доступ к создаваемому пользователями каталогу ссылок на торрент-файлы, которые содержат только списки хеш-сумм

[Профиль] [ЛС]
Показать сообщения:    
Ответить на тему

Текущее время: Сегодня 07:55

Часовой пояс: GMT + 4



Вы не можете начинать темы
Вы не можете отвечать на сообщения
Вы не можете редактировать свои сообщения
Вы не можете удалять свои сообщения
Вы не можете голосовать в опросах
Вы не можете прикреплять файлы к сообщениям
Вы не можете скачивать файлы