Византия / Byzantium (Hил Джopдан / Nеil Jоrdan) [2012, Великобритания, США, Ирландия, ужасы, фэнтези, триллер, драма, BDRip 1080p] Dub + Original (Eng) + Sub (Rus, Eng)

Ответить на тему
 
Автор Сообщение

user ®

Стаж: 7 лет 7 месяцев

Сообщений: 20008

Пост Пост: #1 от 29-Сен-2013 08:15

[Цитировать]

Византия / Byzantium
Страна: Великобритания, Ирландия, США
Студия: Demarest Films, Lipsync Productions, Number 9 Films
Жанр: драма, триллер, фэнтези
Год выпуска: 2012
Продолжительность: 01:58:47
Перевод: профессиональный (дублированный)
Оригинальная аудиодорожка: английская
Cубтитры: русские, английские
Режиссер: Нил Джордан / Neil Jordan
В ролях: Джемма Артертон, Сирша Ронан, Джонни Ли Миллер, Калеб Лэндри Джонс, Сэм Райли, Том Холлендер, Туре Линдхардт, Дэниэл Мэйс, Уоррен Браун, Ури Гариэль, Гленн Дохерти
Описание: Клара и Элеонора поселились в маленьком английском городке, сразу же став объектом сплетен местных обитателей. И дело не только в заметных странностях этой пары. Сама Элеонора как-то проговорилась ровесникам, что ей уже 200 лет…

Релиз: fanatus
Качество видео: BDRip 1080p
Исходник: Blu-ray Disc 1080p [BIZANTIUM_BLUEBIRD]
Контейнер: MKV
Видео: MPEG-4 AVC, 15.0 Mbps , 1920x816 (2.35:1), 23.976 fps, 0.399 bit/pixel
Аудио 1: русский (AC3, 6 ch, 48 kHz, 448 kbps)
Аудио 2: английский (DTS, 6 ch, 48 kHz, 755 kbps)
Формат субтитров: softsub (SRT)
Главы: есть

MediaInfo

General
Unique ID : 174573822749494466633223360860311454715 (0x8355B1FD791282C99C951317FB1B03FB)
Complete name : F:\Byzantium.2012.x264.BDRip.1080p.fanatus.mkv
Format : Matroska
Format version : Version 2
File size : 13.4 GiB
Duration : 1h 58mn
Overall bit rate : 16.2 Mbps
Movie name : Byzantium (2012) - fanatus
Encoded date : UTC 2013-09-27 19:03:05
Writing application : mkvmerge v3.4.0 ('Rapunzel') сборка от May 15 2010 09:38:20
Writing library : libebml v0.8.0 + libmatroska v0.9.0
Video
ID : 1
Format : AVC
Format/Info : Advanced Video Codec
Format profile : High@L4.1
Format settings, CABAC : Yes
Format settings, ReFrames : 5 frames
Codec ID : V_MPEG4/ISO/AVC
Duration : 1h 58mn
Bit rate : 15.0 Mbps
Width : 1 920 pixels
Height : 816 pixels
Display aspect ratio : 2.35:1
Frame rate : 23.976 fps
Color space : YUV
Chroma subsampling : 4:2:0
Bit depth : 8 bits
Scan type : Progressive
Bits/(Pixel*Frame) : 0.399
Stream size : 12.2 GiB (91%)
Title : Byzantium (2012)
Writing library : x264 core 138 r2358kMod 9e941d1
Encoding settings : cabac=1 / ref=5 / deblock=1:-3:-3 / analyse=0x3:0x113 / me=umh / subme=11 / psy=1 / fade_compensate=0.00 / psy_rd=1.05:0.00 / mixed_ref=1 / me_range=48 / chroma_me=1 / trellis=2 / 8x8dct=1 / cqm=0 / deadzone=21,11 / fast_pskip=0 / chroma_qp_offset=-2 / threads=16 / lookahead_threads=4 / sliced_threads=0 / nr=0 / decimate=0 / interlaced=0 / bluray_compat=0 / constrained_intra=0 / bframes=10 / b_pyramid=2 / b_adapt=2 / b_bias=0 / direct=3 / weightb=1 / open_gop=0 / weightp=2 / keyint=240 / keyint_min=23 / scenecut=40 / intra_refresh=0 / rc_lookahead=240 / rc=2pass / mbtree=0 / bitrate=15000 / ratetol=1.0 / qcomp=0.65 / qpmin=0 / qpmax=69 / qpstep=4 / cplxblur=20.0 / qblur=0.5 / vbv_maxrate=50000 / vbv_bufsize=62500 / nal_hrd=none / ip_ratio=1.30 / pb_ratio=1.30 / aq=3:0.95
Language : English
Default : Yes
Forced : No
Audio #1
ID : 2
Format : AC-3
Format/Info : Audio Coding 3
Mode extension : CM (complete main)
Format settings, Endianness : Big
Codec ID : A_AC3
Duration : 1h 58mn
Bit rate mode : Constant
Bit rate : 448 Kbps
Channel(s) : 6 channels
Channel positions : Front: L C R, Side: L R, LFE
Sampling rate : 48.0 KHz
Bit depth : 16 bits
Compression mode : Lossy
Stream size : 381 MiB (3%)
Title : Dub
Language : Russian
Default : Yes
Forced : No
Audio #2
ID : 3
Format : DTS
Format/Info : Digital Theater Systems
Codec ID : A_DTS
Duration : 1h 58mn
Bit rate mode : Constant
Bit rate : 755 Kbps
Channel(s) : 6 channels
Channel positions : Front: L C R, Side: L R, LFE
Sampling rate : 48.0 KHz
Bit depth : 24 bits
Compression mode : Lossy
Stream size : 641 MiB (5%)
Title : Original
Language : English
Default : No
Forced : No
Text #1
ID : 4
Format : UTF-8
Codec ID : S_TEXT/UTF8
Codec ID/Info : UTF-8 Plain Text
Language : Russian
Default : No
Forced : No
Text #2
ID : 5
Format : UTF-8
Codec ID : S_TEXT/UTF8
Codec ID/Info : UTF-8 Plain Text
Language : English
Default : No
Forced : No
Menu
00:00:00.000 : en:00:00:00.000
00:06:56.958 : en:00:06:56.958
00:13:34.583 : en:00:13:34.583
00:20:25.208 : en:00:20:25.208
00:30:35.875 : en:00:30:35.875
00:36:26.458 : en:00:36:26.458
00:42:57.250 : en:00:42:57.250
00:50:03.917 : en:00:50:03.917
00:56:31.167 : en:00:56:31.167
01:04:07.833 : en:01:04:07.833
01:10:13.458 : en:01:10:13.458
01:20:51.542 : en:01:20:51.542
01:28:39.500 : en:01:28:39.500
01:35:44.750 : en:01:35:44.750
01:44:24.500 : en:01:44:24.500
01:53:34.333 : en:01:53:34.333

x264 [info]

x264 [info]: 1920x816p 1:1 @ 24000/1001 fps (cfr)
x264 [info]: using SAR=1/1
x264 [info]: using cpu capabilities: MMX2 SSE2Fast SSSE3 SSE4.2 AVX
x264 [info]: profile High, level 4.1
x264 [info]: cabac=1 ref=5 deblock=1:-3:-3 analyse=0x3:0x113 me=umh subme=11 psy=1 fade_compensate=0.00 psy_rd=1.05:0.00 mixed_ref=1 me_range=48 chroma_me=1 trellis=2 8x8dct=1 cqm=0 deadzone=21,11 fast_pskip=0 chroma_qp_offset=-2 threads=16 lookahead_threads=4 sliced_threads=0 nr=0 decimate=0 interlaced=0 bluray_compat=0 constrained_intra=0 bframes=10 b_pyramid=2 b_adapt=2 b_bias=0 direct=3 weightb=1 open_gop=0 weightp=2 keyint=240 keyint_min=23 scenecut=40 intra_refresh=0 rc_lookahead=240 rc=2pass mbtree=0 bitrate=15000 ratetol=1.0 qcomp=0.65 qpmin=0 qpmax=69 qpstep=4 cplxblur=20.0 qblur=0.5 vbv_maxrate=50000 vbv_bufsize=62500 nal_hrd=none ip_ratio=1.30 pb_ratio=1.30 aq=3:0.95
x264 [info]: frame I:990 Avg QP:14.69 size:223074
x264 [info]: frame P:36700 Avg QP:16.72 size:129132
x264 [info]: frame B:133194 Avg QP:18.52 size: 62980
x264 [info]: consecutive B-frames: 2.5% 3.0% 7.9% 11.5% 12.8% 51.7% 7.1% 0.4% 1.2% 1.1% 0.9%
x264 [info]: mb I I16..4: 14.8% 63.8% 21.4%
x264 [info]: mb P I16..4: 3.3% 26.3% 3.2% P16..4: 22.9% 28.1% 10.2% 0.0% 0.0% skip: 5.9%
x264 [info]: mb B I16..4: 0.8% 3.4% 0.4% B16..8: 43.2% 21.6% 4.6% direct:10.1% skip:15.8% L0:45.4% L1:39.2% BI:15.4%
x264 [info]: 8x8 transform intra:77.0% inter:43.0%
x264 [info]: direct mvs spatial:98.2% temporal:1.8%
x264 [info]: coded y,uvDC,uvAC intra: 91.4% 81.2% 61.9% inter: 53.1% 42.9% 13.7%
x264 [info]: i16 v,h,dc,p: 18% 9% 30% 43%
x264 [info]: i8 v,h,dc,ddl,ddr,vr,hd,vl,hu: 8% 6% 16% 10% 13% 12% 11% 11% 12%
x264 [info]: i4 v,h,dc,ddl,ddr,vr,hd,vl,hu: 12% 8% 31% 6% 9% 8% 8% 7% 10%
x264 [info]: i8c dc,h,v,p: 44% 22% 20% 14%
x264 [info]: Weighted P-Frames: Y:2.8% UV:2.0%
x264 [info]: ref P L0: 45.7% 9.4% 22.9% 11.2% 9.7% 1.0% 0.0%
x264 [info]: ref B L0: 74.9% 17.4% 6.1% 1.7%
x264 [info]: ref B L1: 92.2% 7.8%
x264 [info]: kb/s:14982.96
x264 [info]: encoded 170884 frames, 2.91 fps, 14982.96 kb/s, duration 16:17:39.34

Скриншот c названием фильма

Скриншоты

Скачать

Скачать торрент!

Как скачивать? · Что такое торрент? · Рейтинг и ограничения

Сайт не распространяет и не хранит электронные версии произведений, а лишь предоставляет доступ к создаваемому пользователями каталогу ссылок на торрент-файлы, которые содержат только списки хеш-сумм

[Профиль] [ЛС]
Показать сообщения:    
Ответить на тему

Текущее время: Сегодня 20:22

Часовой пояс: GMT + 4



Вы не можете начинать темы
Вы не можете отвечать на сообщения
Вы не можете редактировать свои сообщения
Вы не можете удалять свои сообщения
Вы не можете голосовать в опросах
Вы не можете прикреплять файлы к сообщениям
Вы не можете скачивать файлы