(Classik) Рахманинов - Полное собрание сочинений / Rachmaninoff Edition Complete Work - 2009, WAVPack (image + .cue), lossless

Ответить на тему
 
Автор Сообщение

user ®

Стаж: 12 лет

Сообщений: 15097

Пост Пост: #1 от 24-Авг-2009 11:31

[Цитировать]

Рахманинов - Полное собрание сочинений / Rachmaninoff Edition Complete Work
Жанр: Classik
Год выпуска: 2009
Формат: WAVPack (image + .cue)
Битрейт аудио: lossless
Продолжительность: 31 Cd
Трэклист:

Содержание дисков:

Rachman01
1. Концерт для фортепиано с оркестром №1
2. Концерт для фортепиано с оркетром №4
3. Рапсодия на тему Паганини
Исполнитель Ерл Вайльд-Королевский филармонический оркестр под управленией Яши Горенштейна
Rachman02
1. Концерт для фортепиано с оркестром №2
2. Концерт для фортепиано с оркетром №3
Исполнитель Ерл Вайльд-Королевский филармонический оркестр под управленией Яши Горенштейна
Rachman03
1.Симфония №1
2.Симфония №3
Дирижер Геннадий Рождественский
Rachman04
1.Симфония №2
2.Юношеская симфония
Руководители Геннадий Рождественнский, Леонард Слаткин
Rachman05
1.Симфонические танцы
2.Поэма "Колокола"
Дирижер Владимир Полански, Ольга Терновская (сопрано),Леонид Бомштейн (тенор), Вячесав Почапский(Бас)
Rachman06
1.Утес
2.Принц Ростислав
3."Скерцо" ре минор
4.Цыганский каприс
5.Остров мертвых
Дирижер Владимир Полански
Rachman07
1. Алеко
Дирижер Роман Кофман, Самсон Изюмов (Бас-баритон), Олег Колко (Тенор), Леонид Тищенко (Бас), Марина Лапина (сопрано).
Rachman08
1. Скупой Рыцарь
Дирижер Валерий Полански, Михаил Гужнов (Бас), Всеволод Гривнов (Тенор), Андрей Батуркин (Баритон), Борислав Молчанов (тенор), Виталий Ефанов (бас).
Rachman09
1. Монна Ванна
Дирижер Игорь Букетов, Шерил Милнес(баритон), Сет МакКой(Тенор), Блю Валкер(Сопрано), Николас Карузатос (Баритон), Ян Торстейнсон (Тенор)
Rachman10
1.Франческа Де Ремини
Дирижер Андрей Чистяков, Марина Лапина (сопрано), Николай Васильев(Тенор), Виталий Таращенко(Тенор), Николай Решетняк(Баритон), Владимир Моторин(бас)
Rachman11
Всенощное Бдение
Дирижер Евгений Савчук, Ольга Бурисен(сопрано),Юрий Коринюк, Михаил Тищенко(Тенора),Национальный Академический Хор "Думка"
Rachman12
1.Литургия Ионна Златоуста
Дирижер Владимир Поланский
Rachman13
1.Литургия Ионна Златоуста(продолжение)
2.Божьей Матери помолимся
3.Хор Духов
4. Пантелей-Целитель
Дирижер Владимир Поланский
Rachman14
1. Кантата "Весна"
Дирижер Дмитрий Китаенко, Юрма Хининнген(Баритон)
2."Три русских песни"
Дирижер Владимир Полански
3. Шесть хоров для женского хора и фортепиано
фортепиано-Тигран Алиханов
4.Скерцо Фа-мажор
5. Вокализ
Дирижер Владимир Полански
Rachman15
Романсы(Часть 1)
Ян Роджерс(сопрано), Мария Попеску(контральто), Александр Науменко(тенор), Сергей Леферкус( Баритон)-фортепианор Говард Шелли
Rachman16
Романсы(Часть 2)
Ян Роджерс(сопрано), Мария Попеску(контральто), Александр Науменко(тенор), Сергей Леферкус( Баритон)-фортепианор Говард Шелли
Rachman17
Романсы(Часть 3)
Ян Роджерс(сопрано), Мария Попеску(контральто), Александр Науменко(тенор), Сергей Леферкус( Баритон)-фортепианор Говард Шелли
Rachman18
1.Элегическое трио №1
2. Элегическое трио №2 (Памяти Великого художника)
Трио имени Бородина: Люба Елдина (фортепиано), Ростислав Дубинский (виолончель), Юлий Туровский (скрипка)
Rachman19
1) Салонные пьесы
а) Романс
б) Венгерский танец
Кристиан Персенару (виолончель), Нильс Франк (фо-но)
2) Две пьесы для ф-но и скрипки
а)Прелюдия Фа-мажор
б)Восточный танец
3.Вокализ
Александр Ивашкин (скрипка)
Рустам Харуддинов (ф-но)
4. Соната для виолончели
Яков Флиер (ф-но)
Даниил Шафран (виолнчель)
Rachman20
1) Этюды-картины ор. 33&39
Николай Луганский (ф-но)
Rachman21
1) 10 Прелюдий для ф-но ор.№23
2)3-ноктюрна (1886-87)
3)Песня без слов (1887)
4) Вакриации на тему Корелли
Сантьяго Родригес (ф-но)
Rachman22
1)Соната для ф-но №1
2) 11 прелюдий ор.32
Сантьяго Родригес (ф-но)
Rachman23
1)Соната для ф-но №2 (Второе издание)
2)Пьесы Фантазии
3) Вариации на тему Шопена
Сантьяго Родригес (ф-но)
Rachman24
1)Шесть Музыкальных моментов
Владимир Гиндин (ф-но)
2)Салонные пьесы
Михаэль Понти (ф-но)
3)Полька В.Р.
Роберт Грослот (ф-но)
Rachman25
Фортепианные транскрипции
Гаррик Ольсон (ф-но)
Rachman26
Из России в Америку (1886-1917)
1. Песня без слов
2.Четыре пьесы
а)Романс
б)Прелюдия
в)Мелодия
г)Гавот
3.Канон
4. Сиюта ре-минор
5.Четыре импровизации на тему: Аренский,Танеев, Глазунов и Рахманинов
6.Пьеса-фантазия
7.Фугетта
8.Восточный танец
9.Прелюдия Ре-мажор
10. Осколки
11. Вариация на тему американского гимна
Нильс Франк (ф-но)
Rachman27
Фортепианные дуэты(часть первая)
1.Сюита №1
2.Русская рапсодия
3.Шесть пьес для четырех рук
а)Баркаролла
б)Скерцо
в)Русская песня
г)Вальс
д)Романс
е)Слава
4.Две пьесы для шесть рук
а)Вальс
б)Романс
5.Итальянская полька
Ингрид Торсон и Джулиан Турбер (ф-но)
Rachman28
Фортепианные дуэты
1. Сюита №2
2. Симфонические танцы
3 Романс соль минор
4.Прелюдия до-диез минор
Ингрид Торсон и Джулиан Турбер (ф-но)
Rachman29
Исторические записи
1) Концерт для ф-но с оркестром №2
2) Концерт для ф-но с оркестром №3
Исполнитель Сергей Рахманинов, дирижер Леопольд Стоковский; Владимир Горовиц, дирижер Альберт Коатс
Rachman30
!)Концерт для фортепиано с оркестром №1
2)Концерт для фортепиано соркестром №2
Святослав Рихтер, дирижер: Олег Агарков, Кирилл Кондрашин
Rachman31
Исторические записи
1)прелюдия соль минор
Владимир Горовиц (ф-но)
2)
а)Прелюдия До-мажор
б)Прелюдия Си-бемоль мажор
в)Прелюдия Фа-мажор
г)Прелюдия Фа-минор
д)Прелюдия Ля-мажор
е)Прелюдия си-минор
ж)Прелюдия соль-диез минор
Святослав Рихтер (ф-но)
3)
а)Вокализ
б)Прелюдия до-диез минор
в)Прелюдия Си-бемоль мажор
г)Прелюдия Соль-бемоль мажор
д)Прелюдия Си-Мажор
е)Прелюдия Соль-минор
Эмиль Гилельс (ф-но)
4)
а)Музыкальные моменты Си-минор и Ре-бемоль мажор
б)Этюд-картина До-мажор
в) Этюд-картина Соль-минор
г) Этюд-картина Си-минор
д)Этюд-картина ми-бемоль минор
е)Этюд-картина ля-минор
Владимир Софроницкий (ф-но)

Отчеты EAC

Rachman01

Exact Audio Copy V0.99 prebeta 4 from 23. January 2008
EAC extraction logfile from 25. November 2008, 16:00
Earl Wild - Jascha Horenstein - Royal PO / Rachmaninoff Edition (Disc 1)
Used drive : _NEC DVD_RW ND-3520A Adapter: 3 ID: 1
Read mode : Secure
Utilize accurate stream : Yes
Defeat audio cache : Yes
Make use of C2 pointers : No
Read offset correction : 48
Overread into Lead-In and Lead-Out : No
Fill up missing offset samples with silence : Yes
Delete leading and trailing silent blocks : No
Null samples used in CRC calculations : Yes
Used interface : Installed external ASPI interface
Used output format : Internal WAV Routines
Sample format : 44.100 Hz; 16 Bit; Stereo
TOC of the extracted CD
Track | Start | Length | Start sector | End sector
---------------------------------------------------------
1 | 0:00.33 | 11:56.35 | 33 | 53767
2 | 11:56.68 | 5:32.72 | 53768 | 78739
3 | 17:29.65 | 6:46.45 | 78740 | 109234
4 | 24:16.35 | 8:55.68 | 109235 | 149427
5 | 33:12.28 | 5:25.22 | 149428 | 173824
6 | 38:37.50 | 8:38.68 | 173825 | 212742
7 | 47:16.43 | 20:37.32 | 212743 | 305549
Range status and errors
Selected range
Filename E:\01\Earl Wild - Jascha Horenstein - Royal PO - Rachmaninoff Edition (Disc 1).wav
Peak level 100.0 %
Range quality 100.0 %
Test CRC 9863F055
Copy CRC 9863F055
Copy OK
No errors occurred
AccurateRip summary
Track 1 not present in database
Track 2 not present in database
Track 3 not present in database
Track 4 not present in database
Track 5 not present in database
Track 6 not present in database
Track 7 not present in database
None of the tracks are present in the AccurateRip database
End of status report

Rachman02

Exact Audio Copy V0.99 prebeta 4 from 23. January 2008
EAC extraction logfile from 25. November 2008, 16:33
Earl Wild - Jascha Horenstein - Royal PO / Rachmaninoff Edition (Disc 02)
Used drive : _NEC DVD_RW ND-3520A Adapter: 3 ID: 1
Read mode : Secure
Utilize accurate stream : Yes
Defeat audio cache : Yes
Make use of C2 pointers : No
Read offset correction : 48
Overread into Lead-In and Lead-Out : No
Fill up missing offset samples with silence : Yes
Delete leading and trailing silent blocks : No
Null samples used in CRC calculations : Yes
Used interface : Installed external ASPI interface
Used output format : Internal WAV Routines
Sample format : 44.100 Hz; 16 Bit; Stereo
TOC of the extracted CD
Track | Start | Length | Start sector | End sector
---------------------------------------------------------
1 | 0:00.32 | 9:18.45 | 32 | 41926
2 | 9:19.02 | 10:25.53 | 41927 | 88854
3 | 19:44.55 | 10:43.10 | 88855 | 137089
4 | 30:27.65 | 14:57.47 | 137090 | 204411
5 | 45:25.37 | 8:42.48 | 204412 | 243609
6 | 54:08.10 | 11:38.52 | 243610 | 296011
Range status and errors
Selected range
Filename E:\02\Earl Wild - Jascha Horenstein - Royal PO - Rachmaninoff Edition (Disc 02).wav
Peak level 100.0 %
Range quality 100.0 %
Test CRC 152413F0
Copy CRC 152413F0
Copy OK
No errors occurred
AccurateRip summary
Track 1 not present in database
Track 2 not present in database
Track 3 not present in database
Track 4 not present in database
Track 5 not present in database
Track 6 not present in database
None of the tracks are present in the AccurateRip database
End of status report

Rachman03

Exact Audio Copy V0.99 prebeta 4 from 23. January 2008
EAC extraction logfile from 26. November 2008, 4:57
G. Rozhdestvensky - USSR Ministry Of Culture SO / Rachmaninoff Edition (Disc 3)
Used drive : _NEC DVD_RW ND-3520A Adapter: 3 ID: 1
Read mode : Secure
Utilize accurate stream : Yes
Defeat audio cache : Yes
Make use of C2 pointers : No
Read offset correction : 48
Overread into Lead-In and Lead-Out : No
Fill up missing offset samples with silence : Yes
Delete leading and trailing silent blocks : No
Null samples used in CRC calculations : Yes
Used interface : Installed external ASPI interface
Used output format : Internal WAV Routines
Sample format : 44.100 Hz; 16 Bit; Stereo
TOC of the extracted CD
Track | Start | Length | Start sector | End sector
---------------------------------------------------------
1 | 0:00.00 | 13:44.65 | 0 | 61864
2 | 13:44.65 | 7:33.06 | 61865 | 95845
3 | 21:17.71 | 9:08.19 | 95846 | 136964
4 | 30:26.15 | 11:56.05 | 136965 | 190669
5 | 42:22.20 | 12:21.61 | 190670 | 246305
6 | 54:44.06 | 11:33.72 | 246306 | 298352
7 | 66:18.03 | 12:24.05 | 298353 | 354157
Range status and errors
Selected range
Filename E:\03\G. Rozhdestvensky - USSR Ministry Of Culture SO - Rachmaninoff Edition (Disc 3).wav
Peak level 100.0 %
Range quality 100.0 %
Test CRC 072BE6D8
Copy CRC 072BE6D8
Copy OK
No errors occurred
AccurateRip summary
Track 1 not present in database
Track 2 not present in database
Track 3 not present in database
Track 4 not present in database
Track 5 not present in database
Track 6 not present in database
Track 7 not present in database
None of the tracks are present in the AccurateRip database
End of status report

Rachman04

Exact Audio Copy V0.99 prebeta 4 from 23. January 2008
EAC extraction logfile from 26. November 2008, 8:11
Various / Rachmaninoff Edition (Disc 4)
Used drive : _NEC DVD_RW ND-3520A Adapter: 3 ID: 1
Read mode : Secure
Utilize accurate stream : Yes
Defeat audio cache : Yes
Make use of C2 pointers : No
Read offset correction : 48
Overread into Lead-In and Lead-Out : No
Fill up missing offset samples with silence : Yes
Delete leading and trailing silent blocks : No
Null samples used in CRC calculations : Yes
Used interface : Installed external ASPI interface
Used output format : Internal WAV Routines
Sample format : 44.100 Hz; 16 Bit; Stereo
TOC of the extracted CD
Track | Start | Length | Start sector | End sector
---------------------------------------------------------
1 | 0:00.00 | 24:29.31 | 0 | 110205
2 | 24:29.31 | 11:13.73 | 110206 | 160753
3 | 35:43.29 | 15:09.03 | 160754 | 228931
4 | 50:52.32 | 15:25.26 | 228932 | 298332
5 | 66:17.58 | 11:28.09 | 298333 | 349941
Range status and errors
Selected range
Filename E:\04\Various - Rachmaninoff Edition (Disc 4).wav
Peak level 89.1 %
Range quality 100.0 %
Test CRC 1F72EC85
Copy CRC 1F72EC85
Copy OK
No errors occurred
AccurateRip summary
Track 1 not present in database
Track 2 not present in database
Track 3 not present in database
Track 4 not present in database
Track 5 not present in database
None of the tracks are present in the AccurateRip database
End of status report

Rachman05

Exact Audio Copy V0.99 prebeta 4 from 23. January 2008
EAC extraction logfile from 26. November 2008, 9:05
V. Polyansky - Russian State SO / Rachmaninoff Edition (Disc 5)
Used drive : _NEC DVD_RW ND-3520A Adapter: 1 ID: 1
Read mode : Secure
Utilize accurate stream : Yes
Defeat audio cache : Yes
Make use of C2 pointers : No
Read offset correction : 48
Overread into Lead-In and Lead-Out : No
Fill up missing offset samples with silence : Yes
Delete leading and trailing silent blocks : No
Null samples used in CRC calculations : Yes
Used interface : Installed external ASPI interface
Used output format : Internal WAV Routines
Sample format : 44.100 Hz; 16 Bit; Stereo
TOC of the extracted CD
Track | Start | Length | Start sector | End sector
---------------------------------------------------------
1 | 0:00.00 | 11:59.50 | 0 | 53974
2 | 11:59.50 | 10:56.45 | 53975 | 103219
3 | 22:56.20 | 14:18.27 | 103220 | 167596
4 | 37:14.47 | 6:06.10 | 167597 | 195056
5 | 43:20.57 | 10:39.63 | 195057 | 243044
6 | 54:00.45 | 8:52.17 | 243045 | 282961
7 | 62:52.62 | 10:13.20 | 282962 | 328956
Range status and errors
Selected range
Filename M:\RIPS\05\V. Polyansky - Russian State SO - Rachmaninoff Edition (Disc 5).wav
Peak level 100.0 %
Range quality 99.9 %
Test CRC 69DEBE66
Copy CRC 69DEBE66
Copy OK
No errors occurred
AccurateRip summary
Track 1 cannot be verified as accurate (confidence 5) [D4FA3942], AccurateRip returned [28EB5143]
Track 2 cannot be verified as accurate (confidence 5) [CE41753F], AccurateRip returned [DA141019]
Track 3 cannot be verified as accurate (confidence 5) [57749160], AccurateRip returned [4B24FE88]
Track 4 cannot be verified as accurate (confidence 5) [5242618D], AccurateRip returned [1812694C]
Track 5 cannot be verified as accurate (confidence 5) [4FA5994B], AccurateRip returned [B603E67E]
Track 6 cannot be verified as accurate (confidence 5) [1767BC3C], AccurateRip returned [127E5244]
Track 7 cannot be verified as accurate (confidence 5) [7A920413], AccurateRip returned [88D808CE]
No tracks could be verified as accurate
You may have a different pressing from the one(s) in the database
End of status report

Rachman06

Exact Audio Copy V0.99 prebeta 4 from 23. January 2008
EAC extraction logfile from 26. November 2008, 10:02
V. Polyansky - Russian State SO / Rachmaninoff Edition (Disc 6)
Used drive : _NEC DVD_RW ND-3520A Adapter: 3 ID: 1
Read mode : Secure
Utilize accurate stream : Yes
Defeat audio cache : Yes
Make use of C2 pointers : No
Read offset correction : 48
Overread into Lead-In and Lead-Out : No
Fill up missing offset samples with silence : Yes
Delete leading and trailing silent blocks : No
Null samples used in CRC calculations : Yes
Used interface : Installed external ASPI interface
Used output format : Internal WAV Routines
Sample format : 44.100 Hz; 16 Bit; Stereo
TOC of the extracted CD
Track | Start | Length | Start sector | End sector
---------------------------------------------------------
1 | 0:00.00 | 14:57.73 | 0 | 67347
2 | 14:57.73 | 18:23.60 | 67348 | 150132
3 | 33:21.58 | 5:35.45 | 150133 | 175302
4 | 38:57.28 | 18:40.25 | 175303 | 259327
5 | 57:37.53 | 22:05.72 | 259328 | 358774
Range status and errors
Selected range
Filename E:\06\V. Polyansky - Russian State SO - Rachmaninoff Edition (Disc 6).wav
Peak level 99.0 %
Range quality 100.0 %
Test CRC 12B398A1
Copy CRC 12B398A1
Copy OK
No errors occurred
AccurateRip summary
Track 1 cannot be verified as accurate (confidence 2) [457EDD18], AccurateRip returned [5492AD8E]
Track 2 cannot be verified as accurate (confidence 2) [2B280EA5], AccurateRip returned [7BB196D1]
Track 3 cannot be verified as accurate (confidence 2) [F9573786], AccurateRip returned [E62980EC]
Track 4 cannot be verified as accurate (confidence 2) [E51ABC26], AccurateRip returned [A06197F1]
Track 5 cannot be verified as accurate (confidence 2) [3F83AA5D], AccurateRip returned [98E5DF1C]
No tracks could be verified as accurate
You may have a different pressing from the one(s) in the database
End of status report

Rachman07

Exact Audio Copy V0.99 prebeta 4 from 23. January 2008
EAC extraction logfile from 26. November 2008, 11:07
R. Kofman - Donetsk PO and others / Rachmaninoff Edition (Disc 7)
Used drive : _NEC DVD_RW ND-3520A Adapter: 3 ID: 1
Read mode : Secure
Utilize accurate stream : Yes
Defeat audio cache : Yes
Make use of C2 pointers : No
Read offset correction : 48
Overread into Lead-In and Lead-Out : No
Fill up missing offset samples with silence : Yes
Delete leading and trailing silent blocks : No
Null samples used in CRC calculations : Yes
Used interface : Installed external ASPI interface
Used output format : Internal WAV Routines
Sample format : 44.100 Hz; 16 Bit; Stereo
TOC of the extracted CD
Track | Start | Length | Start sector | End sector
---------------------------------------------------------
1 | 0:00.00 | 3:22.02 | 0 | 15151
2 | 3:22.02 | 4:17.13 | 15152 | 34439
3 | 7:39.15 | 6:15.70 | 34440 | 62634
4 | 13:55.10 | 2:37.52 | 62635 | 74461
5 | 16:32.62 | 4:58.58 | 74462 | 96869
6 | 21:31.45 | 4:43.27 | 96870 | 118121
7 | 26:14.72 | 4:04.08 | 118122 | 136429
8 | 30:19.05 | 2:35.52 | 136430 | 148106
9 | 32:54.57 | 4:54.60 | 148107 | 170216
10 | 37:49.42 | 6:29.53 | 170217 | 199444
11 | 44:19.20 | 2:54.62 | 199445 | 212556
12 | 47:14.07 | 1:50.45 | 212557 | 220851
13 | 49:04.52 | 15:08.68 | 220852 | 289019
Range status and errors
Selected range
Filename E:\07\R. Kofman - Donetsk PO and others - Rachmaninoff Edition (Disc 7).wav
Peak level 94.5 %
Range quality 99.9 %
Test CRC 4ECF21B6
Copy CRC 4ECF21B6
Copy OK
No errors occurred
AccurateRip summary
Track 1 not present in database
Track 2 not present in database
Track 3 not present in database
Track 4 not present in database
Track 5 not present in database
Track 6 not present in database
Track 7 not present in database
Track 8 not present in database
Track 9 not present in database
Track 10 not present in database
Track 11 not present in database
Track 12 not present in database
Track 13 not present in database
None of the tracks are present in the AccurateRip database
End of status report

Rachman08

Exact Audio Copy V0.99 prebeta 4 from 23. January 2008
EAC extraction logfile from 26. November 2008, 12:17
V. Polyansky - Russian State SO and others / Rachmaninoff Edition (Disc 8)
Used drive : _NEC DVD_RW ND-3520A Adapter: 3 ID: 1
Read mode : Secure
Utilize accurate stream : Yes
Defeat audio cache : Yes
Make use of C2 pointers : No
Read offset correction : 48
Overread into Lead-In and Lead-Out : No
Fill up missing offset samples with silence : Yes
Delete leading and trailing silent blocks : No
Null samples used in CRC calculations : Yes
Used interface : Installed external ASPI interface
Used output format : Internal WAV Routines
Sample format : 44.100 Hz; 16 Bit; Stereo
TOC of the extracted CD
Track | Start | Length | Start sector | End sector
---------------------------------------------------------
1 | 0:00.00 | 7:44.12 | 0 | 34811
2 | 7:44.12 | 17:33.19 | 34812 | 113805
3 | 25:17.31 | 22:56.01 | 113806 | 217006
4 | 48:13.32 | 12:14.43 | 217007 | 272099
Range status and errors
Selected range
Filename E:\08\V. Polyansky - Russian State SO and others - Rachmaninoff Edition (Disc 8).wav
Peak level 99.3 %
Range quality 100.0 %
Test CRC 082F3151
Copy CRC 082F3151
Copy OK
No errors occurred
AccurateRip summary
Track 1 not present in database
Track 2 not present in database
Track 3 not present in database
Track 4 not present in database
None of the tracks are present in the AccurateRip database
End of status report

Rachman09

Exact Audio Copy V0.99 prebeta 4 from 23. January 2008
EAC extraction logfile from 26. November 2008, 12:56
I. Buketoff - Iceland SO and others / Rachmaninoff Edition (Disc 9)
Used drive : _NEC DVD_RW ND-3520A Adapter: 3 ID: 1
Read mode : Secure
Utilize accurate stream : Yes
Defeat audio cache : Yes
Make use of C2 pointers : No
Read offset correction : 48
Overread into Lead-In and Lead-Out : No
Fill up missing offset samples with silence : Yes
Delete leading and trailing silent blocks : No
Null samples used in CRC calculations : Yes
Used interface : Installed external ASPI interface
Used output format : Internal WAV Routines
Sample format : 44.100 Hz; 16 Bit; Stereo
TOC of the extracted CD
Track | Start | Length | Start sector | End sector
---------------------------------------------------------
1 | 0:00.00 | 1:29.55 | 0 | 6729
2 | 1:29.55 | 5:28.63 | 6730 | 31392
3 | 6:58.43 | 16:19.10 | 31393 | 104827
4 | 23:17.53 | 19:22.17 | 104828 | 191994
Range status and errors
Selected range
Filename E:\09\I. Buketoff - Iceland SO and others - Rachmaninoff Edition (Disc 9).wav
Peak level 84.2 %
Range quality 100.0 %
Test CRC 064C24F9
Copy CRC 064C24F9
Copy OK
No errors occurred
AccurateRip summary
Track 1 not present in database
Track 2 not present in database
Track 3 not present in database
Track 4 not present in database
None of the tracks are present in the AccurateRip database
End of status report

Rachman10

Exact Audio Copy V0.99 prebeta 4 from 23. January 2008
EAC extraction logfile from 26. November 2008, 21:25
A. Chistiakov - Bolshoi Teatre Orchestra and others / Rachmaninoff Edition (Disc 10)
Used drive : _NEC DVD_RW ND-3520A Adapter: 3 ID: 1
Read mode : Secure
Utilize accurate stream : Yes
Defeat audio cache : Yes
Make use of C2 pointers : No
Read offset correction : 48
Overread into Lead-In and Lead-Out : No
Fill up missing offset samples with silence : Yes
Delete leading and trailing silent blocks : No
Null samples used in CRC calculations : Yes
Used interface : Installed external ASPI interface
Used output format : Internal WAV Routines
Sample format : 44.100 Hz; 16 Bit; Stereo
TOC of the extracted CD
Track | Start | Length | Start sector | End sector
---------------------------------------------------------
1 | 0:00.33 | 20:53.02 | 33 | 94009
2 | 20:53.35 | 21:05.30 | 94010 | 188914
3 | 41:58.65 | 23:11.63 | 188915 | 293302
Range status and errors
Selected range
Filename E:\10\A. Chistiakov - Bolshoi Teatre Orchestra and others - Rachmaninoff Edition (Disc 10).wav
Peak level 97.7 %
Range quality 99.9 %
Test CRC 21EB8938
Copy CRC 21EB8938
Copy OK
No errors occurred
AccurateRip summary
Track 1 not present in database
Track 2 not present in database
Track 3 not present in database
None of the tracks are present in the AccurateRip database
End of status report

Rachman11

Exact Audio Copy V0.99 prebeta 4 from 23. January 2008
EAC extraction logfile from 28. November 2008, 7:37
Y. Savchuk - National Academic Choir of Ukraine 'Dumka' / Rachmaninoff Edition (Disc 11) - Vespers,Op. 37
Used drive : _NEC DVD_RW ND-3520A Adapter: 3 ID: 1
Read mode : Secure
Utilize accurate stream : Yes
Defeat audio cache : Yes
Make use of C2 pointers : No
Read offset correction : 48
Overread into Lead-In and Lead-Out : No
Fill up missing offset samples with silence : Yes
Delete leading and trailing silent blocks : No
Null samples used in CRC calculations : Yes
Used interface : Installed external ASPI interface
Used output format : Internal WAV Routines
Sample format : 44.100 Hz; 16 Bit; Stereo
TOC of the extracted CD
Track | Start | Length | Start sector | End sector
---------------------------------------------------------
1 | 0:00.00 | 1:46.28 | 0 | 7977
2 | 1:46.28 | 4:52.37 | 7978 | 29914
3 | 6:38.65 | 5:40.31 | 29915 | 55445
4 | 12:19.21 | 3:29.66 | 55446 | 71186
5 | 15:49.12 | 3:59.37 | 71187 | 89148
6 | 19:48.49 | 2:26.08 | 89149 | 100106
7 | 22:14.57 | 2:50.47 | 100107 | 112903
8 | 25:05.29 | 2:33.05 | 112904 | 124383
9 | 27:38.34 | 6:02.21 | 124384 | 151554
10 | 33:40.55 | 3:16.66 | 151555 | 166320
11 | 36:57.46 | 9:45.59 | 166321 | 210254
12 | 46:43.30 | 7:50.48 | 210255 | 245552
13 | 54:34.03 | 2:01.06 | 245553 | 254633
14 | 56:35.09 | 3:34.23 | 254634 | 270706
15 | 60:09.32 | 1:51.18 | 270707 | 279049
Range status and errors
Selected range
Filename E:\11\Y. Savchuk - National Academic Choir of Ukraine 'Dumka' - Rachmaninoff Edition (Disc 11) - Vespers,Op. 37.wav
Peak level 96.7 %
Range quality 99.9 %
Test CRC 0BAF3CB0
Copy CRC 0BAF3CB0
Copy OK
No errors occurred
AccurateRip summary
Track 1 cannot be verified as accurate (confidence 3) [064F8350], AccurateRip returned [C49CA352]
Track 2 cannot be verified as accurate (confidence 3) [EA9F9813], AccurateRip returned [B9D78761]
Track 3 cannot be verified as accurate (confidence 3) [CD5E702A], AccurateRip returned [C1228CF6]
Track 4 cannot be verified as accurate (confidence 3) [2908C04B], AccurateRip returned [A45513DB]
Track 5 cannot be verified as accurate (confidence 3) [01CBC10B], AccurateRip returned [7A3B3F71]
Track 6 cannot be verified as accurate (confidence 3) [567B5355], AccurateRip returned [07C8317F]
Track 7 cannot be verified as accurate (confidence 3) [134DD158], AccurateRip returned [E3621D04]
Track 8 cannot be verified as accurate (confidence 3) [F2588F04], AccurateRip returned [29CA11E2]
Track 9 cannot be verified as accurate (confidence 3) [EDC422E8], AccurateRip returned [8AFD6A82]
Track 10 cannot be verified as accurate (confidence 3) [072C04AE], AccurateRip returned [2D09DBD8]
Track 11 cannot be verified as
Скачать

Скачать торрент! (Classik) Рахманинов - Полное собрание сочинений / Rachmaninoff Edition Complete Work - 2009, WAVPack (image + .cue), lossless

Как скачивать? · Что такое торрент? · Рейтинг и ограничения

Сайт не распространяет и не хранит электронные версии произведений, а лишь предоставляет доступ к создаваемому пользователями каталогу ссылок на торрент-файлы, которые содержат только списки хеш-сумм

[Профиль] [ЛС]

Пост Пост: #2 от 17-Авг-2011 13:22 (спустя 1 год 11 месяцев)

Топик был перенесен из форума Полные собрания сочинений в форум АРХИВ

admin
 
Показать сообщения:    
Ответить на тему

Текущее время: Сегодня 13:29

Часовой пояс: GMT + 4



Вы не можете начинать темы
Вы не можете отвечать на сообщения
Вы не можете редактировать свои сообщения
Вы не можете удалять свои сообщения
Вы не можете голосовать в опросах
Вы не можете прикреплять файлы к сообщениям
Вы не можете скачивать файлы