(Classical) Wolfgang Amadeus Mozart - Requiem - Philippe Herreweghe (conductor) / Вольфганг Амадей Моцарт - Реквием - Филипп Херревеге (дирижер) - аутентичное исполнение, 2000, APE (image + .cue), lossless

Ответить на тему
 
Автор Сообщение

user ®

Стаж: 12 лет

Сообщений: 15097

Пост Пост: #1 от 22-Авг-2009 00:22

[Цитировать]

(Classical) Wolfgang Amadeus Mozart - Requiem - Philippe Herreweghe (conductor) / Вольфган
Жанр: classical
Год выпуска: 2000
Формат: APE (image + .cue)
Битрейт аудио: lossless
Продолжительность: 53'57
Дирижер : Philippe Herreweghe / Филипп Херревеге
Трэклист:
Requiem K.626
1. I. Introitus
2. II. Kyrie
3-8. III. Sequenz
9-10. IV. Offertorium
11. V. Sanctus
12. VI. Benedictus
13. VII. Agnus Dei
14. VIII. Communio
15. Kyrie K.341

Отчет EAC

Exact Audio Copy V0.99 prebeta 4 from 23. January 2008
Отчёт EAC об извлечении, выполненном 30. сентября 2008, 20:59
Herreweghe, Philippe (direction) / Mozart: Requiem
Дисковод: ASUS DRW-1608P2S Adapter: 0 ID: 0
Режим чтения : Достоверность
Использование точного потока : Да
Отключение кэша аудио : Да
Использование указателей C2 : Нет
Коррекция смещения при чтении : 48
Способность читать области Lead-in и Lead-out : Нет
Заполнение пропущенных сэмплов тишиной : Да
Удаление блоков с тишиной в начале и конце : Нет
При вычислениях CRC использовались нулевые сэмплы : Да
Интерфейс : Установленный внешний ASPI-интерфейс
Выходной формат : Внутренние WAV-операции
Формат сэмплов : 44.100 Гц; 16 бит; стерео
TOC извлечённого CD
Трек | Старт | Длительность | Начальный сектор | Конечный сектор
---------------------------------------------------------------------
1 | 0:00.00 | 4:41.40 | 0 | 21114
2 | 4:41.40 | 2:27.40 | 21115 | 32179
3 | 7:09.05 | 2:02.65 | 32180 | 41394
4 | 9:11.70 | 3:15.60 | 41395 | 56079
5 | 12:27.55 | 1:52.58 | 56080 | 64537
6 | 14:20.38 | 4:57.37 | 64538 | 86849
7 | 19:18.00 | 2:28.43 | 86850 | 97992
8 | 21:46.43 | 3:05.60 | 97993 | 111927
9 | 24:52.28 | 3:39.50 | 111928 | 128402
10 | 28:32.03 | 3:55.20 | 128403 | 146047
11 | 32:27.23 | 1:28.25 | 146048 | 152672
12 | 33:55.48 | 4:40.12 | 152673 | 173684
13 | 38:35.60 | 3:23.35 | 173685 | 188944
14 | 41:59.20 | 5:22.20 | 188945 | 213114
15 | 47:21.40 | 6:23.35 | 213115 | 241874
Характеристики диапазона извлечения и сообщения об ошибках
Выбранный диапазон
Имя файла D:\Herreweghe, Philippe (direction) - Mozart Requiem.wav
Пиковый уровень 98.2 %
Качество диапазона 99.9 %
CRC теста 045C8702
CRC копии 045C8702
Копирование... OK
Ошибок не произошло
Конец отчёта
Скачать

Скачать торрент! (Classical) Wolfgang Amadeus Mozart - Requiem - Philippe Herreweghe (conductor) / Вольфганг Амадей Моцарт - Реквием - Филипп Херревеге (дирижер) - аутентичное исполнение, 2000, APE (image + .cue), lossless

Как скачивать? · Что такое торрент? · Рейтинг и ограничения

Сайт не распространяет и не хранит электронные версии произведений, а лишь предоставляет доступ к создаваемому пользователями каталогу ссылок на торрент-файлы, которые содержат только списки хеш-сумм

[Профиль] [ЛС]
Показать сообщения:    
Ответить на тему

Текущее время: Сегодня 14:07

Часовой пояс: GMT + 4



Вы не можете начинать темы
Вы не можете отвечать на сообщения
Вы не можете редактировать свои сообщения
Вы не можете удалять свои сообщения
Вы не можете голосовать в опросах
Вы не можете прикреплять файлы к сообщениям
Вы не можете скачивать файлы