Скачать торрент В паутине страха / Cobweb (2023) BDRip 1080p от EniaHD | D, P

 
Автор Сообщение

bazalt ®

Стаж: 13 лет

Сообщений: 664

Пост Пост: #1 от 23-Июн-2024 21:45

[Цитировать]


В паутине страха / Cobweb
Страна: США
Жанр: ужасы
Год выпуска: 2023
Продолжительность: 01:28:05
Перевод 1: Профессиональный (дублированный) - Мосфильм-Мастер
Перевод 2: Профессиональный (многоголосый закадровый) - Jaskier
Перевод 3: Профессиональный (многоголосый закадровый) - TVShows
Субтитры: русские (Forced, Full), английские (Full, SDH), французские, португальские, румынские, испанские
Режиссер: Сэмюэл Бодин / Samuel Bodin
В ролях: Вуди Норман, Лиззи Каплан, Энтони Старр, Клеопатра Коулмэн, Люк Бьюзи, Александра Драгова, Джей Ринкон, Антон Коттас, Стефани Томас, Живко Михайлов, Илиян Николов, Илиан Николов, Александр Аспарухов, Виктория Великова,
Описание: У восьмилетнего Питера нет друзей, и к тому же один одноклассник постоянно его задирает. Однажды ночью мальчик начинает слышать звуки, а затем и голос из стены в своей комнате, но родители говорят, что это всего лишь его богатое воображение. Тем не менее голос за стеной не унимается и сначала рассказывает Питеру, как проучить школьного хулигана, а затем — что его родители скрывают мрачные тайны.
Тип релиза: BDRip 1080p | playHD
Контейнер: MKV
Видео: MPEG-4 AVC / 1920x804 / 12.6 mbps / 23.976 fps / 2.40:1
Аудио 01: RUS AC-3 5.1 / 384 kbps / 48 kHz / DUB (Мосфильм-Мастер)
Аудио 02: RUS AC-3 5.1 / 384 kbps / 48 kHz / MVO (Jaskier)
Аудио 03: RUS AC-3 5.1 / 384 kbps / 48 kHz / MVO (TVShows)
Аудио 04: ENG E-AC-3 5.1 / 1024 kbps / 48 kHz
Формат субтитров: softsub (SRT)
Навигация по главам: есть

Сравнение

Source: Cobweb.2023.BluRay.1080p.AVC.DTS-HD.MA5.1-MTeam (thanks!)
Debanded opening logo, also fixed top & bottom dirty lines.
Source | playHD
https://imgbox.com/g/PWuEfrLguB

MediaInfo

x264 [info]: frame I:1031 Avg QP: 9.71 size:210938
x264 [info]: frame P:20829 Avg QP:10.98 size:117465
x264 [info]: frame B:104861 Avg QP:11.99 size: 54110
x264 [info]: consecutive B-frames: 1.4% 0.7% 3.3% 3.8% 12.3% 33.3% 13.9% 3.7% 18.9% 8.7%
General
Unique ID : 219962808663136936435948294215323027066 (0xA57B4BC5B61A0896FF93E8E44ECF067A)
Complete name : Cobweb.2023.1080p.BluRay.x264-playHD_EniaHD.mkv
Format : Matroska
Format version : Version 4
File size : 9.11 GiB
Duration : 1 h 28 min
Overall bit rate : 14.8 Mb/s
Frame rate : 23.976 FPS
Movie name : Cobweb (2023) - EniaHD
Writing application : mkvmerge v57.0.0 ('Till The End') 64-bit
Writing library : libebml v1.4.2 + libmatroska v1.6.4
Video
ID : 1
Format : AVC
Format/Info : Advanced Video Codec
Format profile : High@L4.1
Format settings : CABAC / 5 Ref Frames
Format settings, CABAC : Yes
Format settings, Reference fra : 5 frames
Codec ID : V_MPEG4/ISO/AVC
Duration : 1 h 28 min
Bit rate : 12.6 Mb/s
Width : 1 920 pixels
Height : 804 pixels
Display aspect ratio : 2.40:1
Frame rate mode : Constant
Frame rate : 23.976 (24000/1001) FPS
Color space : YUV
Chroma subsampling : 4:2:0
Bit depth : 8 bits
Scan type : Progressive
Bits/(Pixel*Frame) : 0.341
Stream size : 7.77 GiB (85%)
Writing library : x264 core 164 r3075+55M t_mod ~ Encoded by luvBB: JigSaw & droops16
Encoding settings : cabac=1 / ref=5 / deblock=1:-3:-3 / analyse=0x3:0x133 / me=umh / subme=10 / psy=1 / fade_compensate=0.00 / psy_rd=1.00:0.00 / mixed_ref=1 / me_range=32 / chroma_me=1 / trellis=2 / 8x8dct=1 / cqm=0 / deadzone=21,11 / fast_pskip=0 / chroma_qp_offset=-2 / threads=16 / lookahead_threads=2 / sliced_threads=0 / nr=0 / decimate=0 / interlaced=0 / bluray_compat=0 / constrained_intra=0 / fgo=0 / bframes=9 / b_pyramid=2 / b_adapt=2 / b_bias=0 / direct=3 / weightb=1 / open_gop=0 / weightp=2 / keyint=250 / keyint_min=23 / scenecut=40 / intra_refresh=0 / rc=crf / mbtree=0 / crf=15.3000 / qcomp=0.60 / qpmin=0:0:0 / qpmax=69:69:69 / qpstep=4 / ip_ratio=1.30 / pb_ratio=1.20 / aq=3:0.85 / aq-sensitivity=10.00 / aq-factor=1.00:1.00:1.00 / aq2=0 / aq3=0
Default : Yes
Forced : No
Audio #1
ID : 2
Format : AC-3
Format/Info : Audio Coding 3
Commercial name : Dolby Digital
Codec ID : A_AC3
Duration : 1 h 28 min
Bit rate mode : Constant
Bit rate : 384 kb/s
Channel(s) : 6 channels
Channel layout : L R C LFE Ls Rs
Sampling rate : 48.0 kHz
Frame rate : 31.250 FPS (1536 SPF)
Compression mode : Lossy
Stream size : 242 MiB (3%)
Title : Мосфильм-Мастер
Language : Russian
Service kind : Complete Main
Default : Yes
Forced : No
Audio #2
ID : 3
Format : AC-3
Format/Info : Audio Coding 3
Commercial name : Dolby Digital
Codec ID : A_AC3
Duration : 1 h 28 min
Bit rate mode : Constant
Bit rate : 384 kb/s
Channel(s) : 6 channels
Channel layout : L R C LFE Ls Rs
Sampling rate : 48.0 kHz
Frame rate : 31.250 FPS (1536 SPF)
Compression mode : Lossy
Stream size : 242 MiB (3%)
Title : Jaskier
Language : Russian
Service kind : Complete Main
Default : No
Forced : No
Audio #3
ID : 4
Format : AC-3
Format/Info : Audio Coding 3
Commercial name : Dolby Digital
Codec ID : A_AC3
Duration : 1 h 28 min
Bit rate mode : Constant
Bit rate : 384 kb/s
Channel(s) : 6 channels
Channel layout : L R C LFE Ls Rs
Sampling rate : 48.0 kHz
Frame rate : 31.250 FPS (1536 SPF)
Compression mode : Lossy
Stream size : 242 MiB (3%)
Title : TVShows
Language : Russian
Service kind : Complete Main
Default : No
Forced : No
Audio #4
ID : 5
Format : E-AC-3
Format/Info : Enhanced AC-3
Commercial name : Dolby Digital Plus
Codec ID : A_EAC3
Duration : 1 h 28 min
Bit rate mode : Constant
Bit rate : 1 024 kb/s
Channel(s) : 6 channels
Channel layout : L R C LFE Ls Rs
Sampling rate : 48.0 kHz
Frame rate : 31.250 FPS (1536 SPF)
Compression mode : Lossy
Stream size : 645 MiB (7%)
Title : English
Language : English
Service kind : Complete Main
Default : No
Forced : No
Text #1
ID : 6
Format : UTF-8
Codec ID : S_TEXT/UTF8
Codec ID/Info : UTF-8 Plain Text
Duration : 1 h 3 min
Bit rate : 0 b/s
Frame rate : 0.003 FPS
Count of elements : 13
Stream size : 369 Bytes (0%)
Title : Russian (Forced)
Language : Russian
Default : Yes
Forced : No
Text #2
ID : 7
Format : UTF-8
Codec ID : S_TEXT/UTF8
Codec ID/Info : UTF-8 Plain Text
Duration : 1 h 22 min
Bit rate : 42 b/s
Frame rate : 0.140 FPS
Count of elements : 692
Stream size : 25.3 KiB (0%)
Title : Russian
Language : Russian
Default : No
Forced : No
Text #3
ID : 8
Format : UTF-8
Codec ID : S_TEXT/UTF8
Codec ID/Info : UTF-8 Plain Text
Duration : 1 h 21 min
Bit rate : 25 b/s
Frame rate : 0.131 FPS
Count of elements : 641
Stream size : 15.4 KiB (0%)
Title : English
Language : English
Default : No
Forced : No
Text #4
ID : 9
Format : UTF-8
Codec ID : S_TEXT/UTF8
Codec ID/Info : UTF-8 Plain Text
Duration : 1 h 22 min
Bit rate : 38 b/s
Frame rate : 0.206 FPS
Count of elements : 1016
Stream size : 23.3 KiB (0%)
Title : English (SDH)
Language : English
Default : No
Forced : No
Text #5
ID : 10
Format : UTF-8
Codec ID : S_TEXT/UTF8
Codec ID/Info : UTF-8 Plain Text
Duration : 1 h 22 min
Bit rate : 24 b/s
Frame rate : 0.129 FPS
Count of elements : 634
Stream size : 14.5 KiB (0%)
Title : French
Language : French
Default : No
Forced : No
Text #6
ID : 11
Format : UTF-8
Codec ID : S_TEXT/UTF8
Codec ID/Info : UTF-8 Plain Text
Duration : 1 h 22 min
Bit rate : 25 b/s
Frame rate : 0.135 FPS
Count of elements : 664
Stream size : 15.1 KiB (0%)
Title : Portuguese
Language : Portuguese (BR)
Default : No
Forced : No
Text #7
ID : 12
Format : UTF-8
Codec ID : S_TEXT/UTF8
Codec ID/Info : UTF-8 Plain Text
Duration : 1 h 22 min
Bit rate : 26 b/s
Frame rate : 0.124 FPS
Count of elements : 615
Stream size : 15.9 KiB (0%)
Title : Romanian
Language : Romanian
Default : No
Forced : No
Text #8
ID : 13
Format : UTF-8
Codec ID : S_TEXT/UTF8
Codec ID/Info : UTF-8 Plain Text
Duration : 1 h 22 min
Bit rate : 26 b/s
Frame rate : 0.120 FPS
Count of elements : 591
Stream size : 15.8 KiB (0%)
Title : Spanish
Language : Spanish
Default : No
Forced : No
Menu
00:00:00.000 : en:Studio Logo
00:00:41.000 : en:Scene 2
00:03:46.000 : en:Scene 3
00:10:01.000 : en:Scene 4
00:17:29.000 : en:Scene 5
00:21:29.000 : en:Scene 6
00:26:47.000 : en:Scene 7
00:34:49.000 : en:Scene 8
00:41:54.000 : en:Scene 9
00:50:47.000 : en:Scene 10
00:57:39.000 : en:Scene 11
01:06:27.000 : en:Scene 12
01:12:29.000 : en:Scene 13
01:18:23.000 : en:Scene 14
01:20:51.000 : en:Scene 15
01:22:58.000 : en:End Credits

Скриншоты


Скачать
Советуем установить VPN чтобы скрыть ваш IP-адрес
Сайт не распространяет и не хранит электронные версии произведений, а лишь предоставляет доступ к создаваемому пользователями каталогу ссылок на торрент-файлы, которые содержат только списки хеш-сумм
Как скачивать? (для скачивания .torrent файлов необходима регистрация)
[Профиль] [ЛС]
Показать сообщения:    

Текущее время: Сегодня 04:58

Часовой пояс: GMT + 4



Вы не можете начинать темы
Вы не можете отвечать на сообщения
Вы не можете редактировать свои сообщения
Вы не можете удалять свои сообщения
Вы не можете голосовать в опросах
Вы не можете прикреплять файлы к сообщениям
Вы не можете скачивать файлы