Скачать торрент Призраки в Венеции / A Haunting in Venice (2023) BDRip 1080p | D, P

 
Автор Сообщение

bazalt ®

Стаж: 13 лет

Сообщений: 1540

Пост Пост: #1 от 11-Июн-2024 01:05

[Цитировать]

Информация о фильме
Название: Призраки в Венеции
Оригинальное название: A Haunting in Venice
Год выхода: 2023
Жанр: детектив, криминал
Режиссер: Кеннет Брана
В ролях: Кеннет Брана, Кайл Аллен, Камилль Коттен, Джейми Дорнан, Тина Фей, Джуд Хилл, Эмма Лейрд, Келли Райлли, Риккардо Скамарчо, Мишель Йео

О фильме: Венеция. Вышедший на пенсию Эркюль Пуаро неохотно посещает спиритический сеанс, во время которого один из гостей оказывается убит. Бывший детектив берется за расследование.
Страна: США, Великобритания, Италия
Студия: 20th Century Studios, Kinberg Genre, Scott Free Productions, The Mark Gordon Company, TSG Entertainment
Продолжительность: 01:43:22
Перевод 1: Дублированный | MovieDalen
Перевод 2: Дублированный (неофициальный) | Red Head Sound
Перевод 3: Профессиональный многоголосый | TVShows
Перевод 4: Профессиональный многоголосый | LostFilm
Качество: BDRip 1080p
Видео: MPEG-4 AVC, 1920x1036, 13.8 Mbit/s, 23.976 fps
Аудио #01: 48 kHz, AC3, 5.1, 384 Kbps | Дублированный | MovieDalen | RUS |
Аудио #02: 48 kHz, AC3, 5.1, 640 Kbps | Дублированный | Red Head Sound | RUS |
Аудио #03: 48 kHz, AC3, 5.1, 384 Kbps | Профессиональный многоголосый | TVShows | RUS |
Аудио #04: 48 kHz, AC3, 2.0, 192 Kbps | Профессиональный многоголосый | LostFilm | RUS |
Аудио #05: 48 kHz, AC3, 5.1, 384 Kbps | Дублированный | Postmodern | UKR |
Аудио #06: 48 kHz, AC3, 5.1, 640 Kbps | Оригинал | ENG |
Субтитры: Русские (Forced, full), украинские (Forced, full), английские

MI

General
Unique ID : 256827118608696623627180163753540889525 (0xC1371A9455DAC4122D40FA82AC80ABB5)
Complete name : H:VideoHA.Haunting.in.Venice.2023.D.MVO.BDRip.1080p.seleZen.mkv
Format : Matroska
Format version : Version 4
File size : 11.9 GiB
Duration : 1 h 43 min
Overall bit rate : 16.5 Mb/s
Frame rate : 23.976 FPS
Movie name : A Haunting in Venice from seleZen
Encoded date : 2023-11-20 23:56:22 UTC
Writing application : mkvmerge v79.0 ('Funeral Pyres') 64-bit
Writing library : libebml v1.4.4 + libmatroska v1.7.1
Video
ID : 1
Format : AVC
Format/Info : Advanced Video Codec
Format profile : High@L4.1
Format settings : CABAC / 4 Ref Frames
Format settings, CABAC : Yes
Format settings, Reference : 4 frames
Codec ID : V_MPEG4/ISO/AVC
Duration : 1 h 43 min
Bit rate : 13.8 Mb/s
Width : 1 920 pixels
Height : 1 036 pixels
Display aspect ratio : 1.85:1
Frame rate mode : Constant
Frame rate : 23.976 (24000/1001) FPS
Color space : YUV
Chroma subsampling : 4:2:0
Bit depth : 8 bits
Scan type : Progressive
Bits/(Pixel*Frame) : 0.290
Stream size : 9.98 GiB (84%)
Title : MTeam
Writing library : x264 core 157 r2938 2b00a84 TnP@MTeam Mod
Encoding settings : cabac=1 / ref=4 / deblock=1:-3:-3 / analyse=0x3:0x133 / me=umh / subme=10 / psy=1 / psy_rd=1.05:0.00 / mixed_ref=1 / me_range=32 / chroma_me=1 / trellis=2 / 8x8dct=1 / cqm=0 / deadzone=21,11 / fast_pskip=0 / chroma_qp_offset=-2 / threads=12 / lookahead_threads=2 / sliced_threads=0 / nr=0 / decimate=0 / interlaced=0 / bluray_compat=0 / constrained_intra=0 / bframes=8 / b_pyramid=2 / b_adapt=2 / b_bias=0 / direct=3 / weightb=1 / open_gop=0 / weightp=2 / keyint=250 / keyint_min=24 / scenecut=40 / intra_refresh=0 / rc_lookahead=250 / rc=crf / mbtree=0 / crf=16.8 / qcomp=0.60 / qpmin=0 / qpmax=69 / qpstep=4 / vbv_maxrate=62500 / vbv_bufsize=78125 / crf_max=0.0 / nal_hrd=none / filler=0 / ip_ratio=1.30 / pb_ratio=1.20 / aq=3:0.80
Language : English
Default : Yes
Forced : No
Color range : Limited
Color primaries : BT.709
Matrix coefficients : BT.709
Audio #1
ID : 2
Format : AC-3
Format/Info : Audio Coding 3
Commercial name : Dolby Digital
Codec ID : A_AC3
Duration : 1 h 43 min
Bit rate mode : Constant
Bit rate : 384 kb/s
Channel(s) : 6 channels
Channel layout : L R C LFE Ls Rs
Sampling rate : 48.0 kHz
Frame rate : 31.250 FPS (1536 SPF)
Compression mode : Lossy
Stream size : 284 MiB (2%)
Title : Dub_MovieDalen
Language : Russian
Service kind : Complete Main
Default : Yes
Forced : No
Audio #2
ID : 3
Format : AC-3
Format/Info : Audio Coding 3
Commercial name : Dolby Digital
Codec ID : A_AC3
Duration : 1 h 43 min
Bit rate mode : Constant
Bit rate : 640 kb/s
Channel(s) : 6 channels
Channel layout : L R C LFE Ls Rs
Sampling rate : 48.0 kHz
Frame rate : 31.250 FPS (1536 SPF)
Compression mode : Lossy
Stream size : 473 MiB (4%)
Title : Dub_Red Head Sound
Language : Russian
Service kind : Complete Main
Default : No
Forced : No
Audio #3
ID : 4
Format : AC-3
Format/Info : Audio Coding 3
Commercial name : Dolby Digital
Codec ID : A_AC3
Duration : 1 h 43 min
Bit rate mode : Constant
Bit rate : 384 kb/s
Channel(s) : 6 channels
Channel layout : L R C LFE Ls Rs
Sampling rate : 48.0 kHz
Frame rate : 31.250 FPS (1536 SPF)
Compression mode : Lossy
Stream size : 284 MiB (2%)
Title : MVO_TVShows
Language : Russian
Service kind : Complete Main
Default : No
Forced : No
Audio #4
ID : 5
Format : AC-3
Format/Info : Audio Coding 3
Commercial name : Dolby Digital
Codec ID : A_AC3
Duration : 1 h 43 min
Bit rate mode : Constant
Bit rate : 192 kb/s
Channel(s) : 2 channels
Channel layout : L R
Sampling rate : 48.0 kHz
Frame rate : 31.250 FPS (1536 SPF)
Compression mode : Lossy
Stream size : 142 MiB (1%)
Title : MVO_LostFilm
Language : Russian
Service kind : Complete Main
Default : No
Forced : No
Audio #5
ID : 6
Format : AC-3
Format/Info : Audio Coding 3
Commercial name : Dolby Digital
Codec ID : A_AC3
Duration : 1 h 43 min
Bit rate mode : Constant
Bit rate : 384 kb/s
Channel(s) : 6 channels
Channel layout : L R C LFE Ls Rs
Sampling rate : 48.0 kHz
Frame rate : 31.250 FPS (1536 SPF)
Compression mode : Lossy
Stream size : 284 MiB (2%)
Title : Dub_Postmodern
Language : Ukrainian
Service kind : Complete Main
Default : No
Forced : No
Audio #6
ID : 7
Format : AC-3
Format/Info : Audio Coding 3
Commercial name : Dolby Digital
Codec ID : A_AC3
Duration : 1 h 43 min
Bit rate mode : Constant
Bit rate : 640 kb/s
Channel(s) : 6 channels
Channel layout : L R C LFE Ls Rs
Sampling rate : 48.0 kHz
Frame rate : 31.250 FPS (1536 SPF)
Compression mode : Lossy
Stream size : 473 MiB (4%)
Title : Original
Language : English
Service kind : Complete Main
Default : No
Forced : No
Text #1
ID : 8
Format : UTF-8
Codec ID : S_TEXT/UTF8
Codec ID/Info : UTF-8 Plain Text
Duration : 1 h 24 min
Bit rate : 0 b/s
Frame rate : 0.001 FPS
Count of elements : 6
Stream size : 347 Bytes (0%)
Title : Forced
Language : Russian
Default : No
Forced : No
Text #2
ID : 9
Format : UTF-8
Codec ID : S_TEXT/UTF8
Codec ID/Info : UTF-8 Plain Text
Duration : 1 h 36 min
Bit rate : 106 b/s
Frame rate : 0.262 FPS
Count of elements : 1518
Stream size : 75.5 KiB (0%)
Title : Full
Language : Russian
Default : No
Forced : No
Text #3
ID : 10
Format : UTF-8
Codec ID : S_TEXT/UTF8
Codec ID/Info : UTF-8 Plain Text
Duration : 1 h 35 min
Bit rate : 67 b/s
Frame rate : 0.264 FPS
Count of elements : 1517
Stream size : 47.2 KiB (0%)
Title : Full
Language : English
Default : No
Forced : No
Text #4
ID : 11
Format : UTF-8
Codec ID : S_TEXT/UTF8
Codec ID/Info : UTF-8 Plain Text
Duration : 1 h 37 min
Bit rate : 78 b/s
Frame rate : 0.315 FPS
Count of elements : 1849
Stream size : 56.0 KiB (0%)
Title : SDH
Language : English
Default : No
Forced : No
Text #5
ID : 12
Format : UTF-8
Codec ID : S_TEXT/UTF8
Codec ID/Info : UTF-8 Plain Text
Duration : 1 h 24 min
Bit rate : 0 b/s
Frame rate : 0.002 FPS
Count of elements : 9
Stream size : 368 Bytes (0%)
Title : Forced
Language : Ukrainian
Default : No
Forced : No
Text #6
ID : 13
Format : UTF-8
Codec ID : S_TEXT/UTF8
Codec ID/Info : UTF-8 Plain Text
Duration : 1 h 41 min
Bit rate : 105 b/s
Frame rate : 0.249 FPS
Count of elements : 1521
Stream size : 79.0 KiB (0%)
Title : Full
Language : Ukrainian
Default : No
Forced : No
Menu
00:00:00.000 : en:Chapter 01
00:02:39.659 : en:Chapter 02
00:03:33.255 : en:Chapter 03
00:06:40.942 : en:Chapter 04
00:11:54.464 : en:Chapter 05
00:17:41.185 : en:Chapter 06
00:19:04.435 : en:Chapter 07
00:23:12.850 : en:Chapter 08
00:28:36.256 : en:Chapter 09
00:33:09.821 : en:Chapter 10
00:36:11.586 : en:Chapter 11
00:42:54.906 : en:Chapter 12
00:46:47.221 : en:Chapter 13
00:51:01.058 : en:Chapter 14
00:55:04.092 : en:Chapter 15
01:01:57.464 : en:Chapter 16
01:07:12.820 : en:Chapter 17
01:11:02.300 : en:Chapter 18
01:16:03.642 : en:Chapter 19
01:20:41.628 : en:Chapter 20
01:29:08.426 : en:Chapter 21
01:30:14.826 : en:Chapter 22
01:35:09.287 : en:Chapter 23
01:40:16.427 : en:Chapter 24
Скачать
Советуем установить VPN чтобы скрыть ваш IP-адрес
Сайт не распространяет и не хранит электронные версии произведений, а лишь предоставляет доступ к создаваемому пользователями каталогу ссылок на торрент-файлы, которые содержат только списки хеш-сумм
Как скачивать? (для скачивания .torrent файлов необходима регистрация)
[Профиль] [ЛС]
Показать сообщения:    

Текущее время: Сегодня 14:48

Часовой пояс: GMT + 4



Вы не можете начинать темы
Вы не можете отвечать на сообщения
Вы не можете редактировать свои сообщения
Вы не можете удалять свои сообщения
Вы не можете голосовать в опросах
Вы не можете прикреплять файлы к сообщениям
Вы не можете скачивать файлы