Скачать торрент Астрал 5: Красная дверь / Insidious: The Red Door (2023) HDRip | D

 
Автор Сообщение

bazalt ®

Стаж: 13 лет

Сообщений: 1902

Пост Пост: #1 от 11-Июн-2024 00:35

[Цитировать]

Информация о фильме
Название: Астрал 5: Красная дверь
Оригинальное название: Insidious: The Red Door
Год выхода: 2023
Жанр: Ужасы, драма, триллер
Режиссер: Патрик Уилсон
В ролях: Тай Симпкинс, Патрик Уилсон, Роуз Бирн, Синклер Дэниел, Хиам Аббасс, Эндрю Эстор, Джулиана Дэвис, Стив Коултер, Питер Даггер, Джастин Стерджис
О фильме:
Далтон вырос и отправляется в художественное училище, где, следуя указаниям преподавательницы, пытается погрузиться в собственное подсознание. Парень начинает рисовать загадочную дверь, которая как-то связана с его детскими годами, о которых он ничего не помнит. А Джош, который тоже забыл важную часть своей жизни, уже некоторое время жалуется на спутанность сознания и во время обследования вдруг видит страшного призрака...


Страна: США, Канада
Студия: Alliance, Blumhouse Productions, Screen Gems
Продолжительность: 01:47:08
Перевод: Профессиональный дублированный - Bravo Records Georgia / Movie Dubbing
Файл
Кодек: XviD
Качество: HDRip
Видео: 688x288 (2.39:1), 23.976 fps, XviD build 67 ~840 kbps avg, 0.18 bit/pixel
Звук: 48 kHz, MP3, 2 ch, ~128 kbps avg
Субтитры: Отсутствуют

MediaInfo

General
Complete name : D:Астрал 5 Красная дверь.2023.HDRip by .avi
Format : AVI
Format/Info : Audio Video Interleave
Format settings : BitmapInfoHeader / WaveFormatEx
File size : 751 MiB
Duration : 1 h 47 min
Overall bit rate : 981 kb/s
Frame rate : 23.976 FPS
Movie name : Insidious.The.Red.Door.2023._
Writing application : Lavf58.29.100
Video
ID : 0
Format : MPEG-4 Visual
Format profile : Advanced Simple@L5
Format settings : BVOP1 / Custom Matrix
Format settings, BVOP : 1
Format settings, QPel : No
Format settings, GMC : No warppoints
Format settings, Matrix : Custom
Codec ID : XVID
Codec ID/Hint : XviD
Duration : 1 h 47 min
Bit rate : 840 kb/s
Width : 688 pixels
Height : 288 pixels
Display aspect ratio : 2.40:1
Frame rate : 23.976 (24000/1001) FPS
Color space : YUV
Chroma subsampling : 4:2:0
Bit depth : 8 bits
Scan type : Progressive
Compression mode : Lossy
Bits/(Pixel*Frame) : 0.177
Stream size : 644 MiB (86%)
Writing library : XviD 67
Audio
ID : 1
Format : MPEG Audio
Format version : Version 1
Format profile : Layer 3
Format settings : Joint stereo
Codec ID : 55
Codec ID/Hint : MP3
Duration : 1 h 47 min
Bit rate mode : Constant
Bit rate : 128 kb/s
Channel(s) : 2 channels
Sampling rate : 48.0 kHz
Compression mode : Lossy
Stream size : 98.1 MiB (13%)
Alignment : Aligned on interleaves
Interleave, duration : 24 ms (0.58 video frame)
Title : Dub
Writing library : LAME

Скриншоты


Скачать
Советуем установить VPN чтобы скрыть ваш IP-адрес
Сайт не распространяет и не хранит электронные версии произведений, а лишь предоставляет доступ к создаваемому пользователями каталогу ссылок на торрент-файлы, которые содержат только списки хеш-сумм
Как скачивать? (для скачивания .torrent файлов необходима регистрация)
[Профиль] [ЛС]
Показать сообщения:    

Текущее время: Сегодня 17:03

Часовой пояс: GMT + 4



Вы не можете начинать темы
Вы не можете отвечать на сообщения
Вы не можете редактировать свои сообщения
Вы не можете удалять свои сообщения
Вы не можете голосовать в опросах
Вы не можете прикреплять файлы к сообщениям
Вы не можете скачивать файлы