Скачать торрент Международная космическая станция / I.S.S. (2023) WEB-DLRip-AVC | P2 | ViruseProject

 
Автор Сообщение

bazalt ®

Стаж: 13 лет

Сообщений: 2181

Пост Пост: #1 от 20-Апр-2024 23:15

[Цитировать]

Информация о фильме
Название: Международная космическая станция
Оригинальное название: I.S.S.
Год выхода: 2023
Жанр: триллер, фантастика
Режиссер: Габриэла Каупертуэйт / Gabriela Cowperthwaite
В ролях: Ариана ДеБос, Крис Мессина, Пилу Асбек, Мария Машкова, Коста Ронин, Джон Галлахер мл. и др.

О фильме:
На МКС прибывают два астронавта, интернациональная команда устраивает радушную встречу, и теперь экипаж состоит из трёх русских и трёх американцев. Пока новенькие осваиваются, на Земле вдруг начинается масштабная война между Россией и США — обе стороны связываются со своими космонавтами и приказывают им взять станцию под контроль любыми средствами. «Международная космическая станция» (2023) — фантастический триллер с Арианой ДеБос, Крисом Мессиной и Марией Машковой в главных ролях.
Страна: США, LD Entertainment
Продолжительность: 01:35:42
Перевод: Профессиональный (двухголосый, закадровый) | ViruseProject
Субтитры: Русские (Full (stirlooo)), Английские
Файл
Формат: Matroska
Качество: WEB-DLRip-AVC
Видео: 1024x432 at 23.976 fps, x264@L4.1, ~1698 kbps
Аудио: AC3, 6 ch, ~448 kbps - | Русский |
Формат субтитров: softsub (SRT)


M/I

x264 [info]: frame I:1191 Avg QP:15.91 size: 56632
x264 [info]: frame P:27363 Avg QP:17.50 size: 20760
x264 [info]: frame B:109135 Avg QP:18.95 size: 5348
General
Unique ID : 76065603937224708349538444693127663499 (0x3939B3D2D981872594A706A826E58F8B)
Complete name : I:I.S.S.2023.DVO.WEB-DLRip.x264.seleZen.mkv
Format : Matroska
Format version : Version 4
File size : 1.44 GiB
Duration : 1 h 35 min
Overall bit rate : 2 148 kb/s
Frame rate : 23.976 FPS
Movie name : I.S.S.2023.DVO.WEB-DLRip.x264.seleZen
Encoded date : 2024-02-08 12:26:04 UTC
Writing application : mkvmerge v82.0 ('I'm The President') 64-bit
Writing library : libebml v1.4.5 + libmatroska v1.7.1
Cover : Yes
Attachments : cover.jpg / small_cover.jpg
Video
ID : 1
Format : AVC
Format/Info : Advanced Video Codec
Format profile : High@L4.1
Format settings : CABAC / 14 Ref Frames
Format settings, CABAC : Yes
Format settings, Reference : 14 frames
Codec ID : V_MPEG4/ISO/AVC
Duration : 1 h 35 min
Bit rate : 1 698 kb/s
Width : 1 024 pixels
Height : 432 pixels
Display aspect ratio : 2.40:1
Frame rate mode : Constant
Frame rate : 23.976 (24000/1001) FPS
Color space : YUV
Chroma subsampling : 4:2:0
Bit depth : 8 bits
Scan type : Progressive
Bits/(Pixel*Frame) : 0.160
Stream size : 1.14 GiB (79%)
Title :
Writing library : x264 core 164 r3173 -DoMiNo
Encoding settings : cabac=1 / ref=14 / deblock=1:-1:-1 / analyse=0x3:0x133 / me=umh / subme=10 / psy=1 / psy_rd=1.00:0.15 / mixed_ref=1 / me_range=32 / chroma_me=1 / trellis=2 / 8x8dct=1 / cqm=0 / deadzone=21,11 / fast_pskip=0 / chroma_qp_offset=-3 / threads=16 / lookahead_threads=3 / sliced_threads=0 / nr=0 / decimate=0 / interlaced=0 / bluray_compat=0 / constrained_intra=0 / bframes=12 / b_pyramid=2 / b_adapt=2 / b_bias=0 / direct=1 / weightb=1 / open_gop=0 / weightp=2 / keyint=250 / keyint_min=23 / scenecut=40 / intra_refresh=0 / rc_lookahead=60 / rc=crf / mbtree=0 / crf=18.8 / qcomp=0.60 / qpmin=0 / qpmax=69 / qpstep=4 / vbv_maxrate=50000 / vbv_bufsize=62500 / crf_max=0.0 / nal_hrd=none / filler=0 / ip_ratio=1.40 / pb_ratio=1.30 / aq=3:0.90
Language : English
Default : Yes
Forced : No
Color range : Limited
Color primaries : BT.709
Transfer characteristics : BT.709
Matrix coefficients : BT.709
Audio
ID : 2
Format : AC-3
Format/Info : Audio Coding 3
Commercial name : Dolby Digital
Codec ID : A_AC3
Duration : 1 h 35 min
Bit rate mode : Constant
Bit rate : 448 kb/s
Channel(s) : 6 channels
Channel layout : L R C LFE Ls Rs
Sampling rate : 48.0 kHz
Frame rate : 31.250 FPS (1536 SPF)
Compression mode : Lossy
Stream size : 307 MiB (21%)
Title : DVO-ViruseProject
Language : Russian
Service kind : Complete Main
Default : Yes
Forced : No
Text #1
ID : 3
Format : UTF-8
Codec ID : S_TEXT/UTF8
Codec ID/Info : UTF-8 Plain Text
Duration : 1 h 28 min
Bit rate : 75 b/s
Frame rate : 0.194 FPS
Count of elements : 1027
Stream size : 48.6 KiB (0%)
Title : Full -stirlooo
Language : Russian
Default : No
Forced : No
Text #2
ID : 4
Format : UTF-8
Codec ID : S_TEXT/UTF8
Codec ID/Info : UTF-8 Plain Text
Duration : 1 h 21 min
Bit rate : 5 b/s
Frame rate : 0.030 FPS
Count of elements : 147
Stream size : 3.39 KiB (0%)
Title : Forced
Language : English (US)
Default : No
Forced : No
Text #3
ID : 5
Format : UTF-8
Codec ID : S_TEXT/UTF8
Codec ID/Info : UTF-8 Plain Text
Duration : 1 h 26 min
Bit rate : 50 b/s
Frame rate : 0.207 FPS
Count of elements : 1072
Stream size : 32.1 KiB (0%)
Title : Full
Language : English (US)
Default : No
Forced : No
Text #4
ID : 6
Format : UTF-8
Codec ID : S_TEXT/UTF8
Codec ID/Info : UTF-8 Plain Text
Duration : 1 h 28 min
Bit rate : 59 b/s
Frame rate : 0.241 FPS
Count of elements : 1280
Stream size : 38.6 KiB (0%)
Title : SDH
Language : English (US)
Default : No
Forced : No
Menu
00:00:00.000 : en:Chapter 01
00:05:50.000 : en:Chapter 02
00:11:40.000 : en:Chapter 03
00:17:30.000 : en:Chapter 04
00:23:20.000 : en:Chapter 05
00:29:10.000 : en:Chapter 06
00:35:00.000 : en:Chapter 07
00:40:50.000 : en:Chapter 08
00:46:40.000 : en:Chapter 09
00:52:30.000 : en:Chapter 10
00:58:20.000 : en:Chapter 11
01:04:10.000 : en:Chapter 12
01:10:00.000 : en:Chapter 13
01:15:50.000 : en:Chapter 14
01:21:40.000 : en:Chapter 15
01:27:30.000 : en:Chapter 16
01:33:20.000 : en:Chapter 17
Скачать
Советуем установить VPN чтобы скрыть ваш IP-адрес
Сайт не распространяет и не хранит электронные версии произведений, а лишь предоставляет доступ к создаваемому пользователями каталогу ссылок на торрент-файлы, которые содержат только списки хеш-сумм
Как скачивать? (для скачивания .torrent файлов необходима регистрация)
[Профиль] [ЛС]
Показать сообщения:    

Текущее время: Сегодня 10:46

Часовой пояс: GMT + 4



Вы не можете начинать темы
Вы не можете отвечать на сообщения
Вы не можете редактировать свои сообщения
Вы не можете удалять свои сообщения
Вы не можете голосовать в опросах
Вы не можете прикреплять файлы к сообщениям
Вы не можете скачивать файлы