Скачать торрент Капкан: Судная ночь / Night of the Hunted (2023) BDRip-AVC | D

 
Автор Сообщение

bazalt ®

Стаж: 13 лет

Сообщений: 2181

Пост Пост: #1 от 20-Апр-2024 19:05

[Цитировать]

Информация о фильме
Название: Капкан: Судная ночь
Оригинальное название: Night of the Hunted
Год выхода: 2023
Жанр: Триллер
Режиссер: Франк Халфун
В ролях: Джереми Скиппио, Дж. Джон Билер, Монайя Абдельрахим, Эббе Андерсен, Брайан Брейтер, Бренда Нуньес, Алекс Попович, Айзиа Рейс, Камилль Роу, Сташа Станич

Описание:
Выжить в схватке с беспощадным стрелком, скрывающим свое лицо, очень непросто. У маньяка своя философия, правила жизни и мотивы, по которым он выбирает, кто в эту ночь станет следующей жертвой, а кого следует пощадить.
Страна: США, Франция
Студия: Cinestesia, Getaway Films, Heavy Rainfall, Logical Content Ventures, Logical Pictures, MoJo
Продолжительность: 01:34:39
Перевод: Профессиональный (полное дублирование) | Vox Records
В русском WEBDL отсутствуют сцены порядком 30сек. по сравнению с Blu-ray, перевод не требуется.
Субтитры: Русские (Forced), Английские (Full, SDH)
Файл
Формат: Matroska
Качество: BDRip-AVC
Видео: 1024x428 at 24.000 fps, x264@L4.1, ~1634 kbps
Аудио 1: AC3, 6 ch, ~384 kbps - | Русский |
Аудио 2: AC3, 6 ch, ~448 kbps - | Английский |
Формат субтитров: softsub (SRT)

M/I

x264 [info]: frame I:966 Avg QP:12.70 size: 58076
x264 [info]: frame P:27624 Avg QP:14.98 size: 20560
x264 [info]: frame B:107706 Avg QP:16.64 size: 4974
General
Unique ID : 133966433776079615030559213826849779940 (0x64C8FF237C3A26FD601C23A0DDF630E4)
Complete name : I:Night.of.the.Hunted.2023.DUB.BDRip.x264.seleZen.mkv
Format : Matroska
Format version : Version 4
File size : 1.63 GiB
Duration : 1 h 34 min
Overall bit rate : 2 468 kb/s
Frame rate : 24.000 FPS
Movie name : Night.of.the.Hunted.2023.DUB.BDRip.x264.seleZen
Encoded date : 2024-03-28 18:38:57 UTC
Writing application : mkvmerge v83.0 ('Circle Of Friends') 64-bit
Writing library : libebml v1.4.5 + libmatroska v1.7.1
Cover : Yes
Attachments : cover.jpg / small_cover.jpg
Video
ID : 1
Format : AVC
Format/Info : Advanced Video Codec
Format profile : High@L4.1
Format settings : CABAC / 14 Ref Frames
Format settings, CABAC : Yes
Format settings, Reference : 14 frames
Codec ID : V_MPEG4/ISO/AVC
Duration : 1 h 34 min
Bit rate : 1 634 kb/s
Width : 1 024 pixels
Height : 428 pixels
Display aspect ratio : 2.40:1
Frame rate mode : Constant
Frame rate : 24.000 FPS
Color space : YUV
Chroma subsampling : 4:2:0
Bit depth : 8 bits
Scan type : Progressive
Bits/(Pixel*Frame) : 0.155
Stream size : 1.08 GiB (66%)
Title :
Writing library : x264 core 164 r3190 7ed753b
Encoding settings : cabac=1 / ref=14 / deblock=1:-2:-2 / analyse=0x3:0x133 / me=umh / subme=10 / psy=1 / psy_rd=1.05:0.05 / mixed_ref=1 / me_range=32 / chroma_me=1 / trellis=2 / 8x8dct=1 / cqm=0 / deadzone=21,11 / fast_pskip=0 / chroma_qp_offset=-3 / threads=13 / lookahead_threads=3 / sliced_threads=0 / nr=0 / decimate=0 / interlaced=0 / bluray_compat=0 / constrained_intra=0 / bframes=10 / b_pyramid=2 / b_adapt=2 / b_bias=0 / direct=1 / weightb=1 / open_gop=0 / weightp=2 / keyint=240 / keyint_min=24 / scenecut=40 / intra_refresh=0 / rc_lookahead=60 / rc=crf / mbtree=0 / crf=16.8 / qcomp=0.60 / qpmin=0 / qpmax=69 / qpstep=4 / vbv_maxrate=50000 / vbv_bufsize=62500 / crf_max=0.0 / nal_hrd=none / filler=0 / ip_ratio=1.40 / pb_ratio=1.30 / aq=3:0.90
Language : English
Default : Yes
Forced : No
Color range : Limited
Color primaries : BT.709
Transfer characteristics : BT.709
Matrix coefficients : BT.709
Audio #1
ID : 2
Format : AC-3
Format/Info : Audio Coding 3
Commercial name : Dolby Digital
Codec ID : A_AC3
Duration : 1 h 34 min
Bit rate mode : Constant
Bit rate : 384 kb/s
Channel(s) : 6 channels
Channel layout : L R C LFE Ls Rs
Sampling rate : 48.0 kHz
Frame rate : 31.250 FPS (1536 SPF)
Compression mode : Lossy
Stream size : 260 MiB (16%)
Title : Dub -Vox Records
Language : Russian
Service kind : Complete Main
Default : Yes
Forced : No
Audio #2
ID : 3
Format : AC-3
Format/Info : Audio Coding 3
Commercial name : Dolby Digital
Codec ID : A_AC3
Duration : 1 h 34 min
Bit rate mode : Constant
Bit rate : 448 kb/s
Channel(s) : 6 channels
Channel layout : L R C LFE Ls Rs
Sampling rate : 48.0 kHz
Frame rate : 31.250 FPS (1536 SPF)
Compression mode : Lossy
Stream size : 303 MiB (18%)
Title : Original
Language : English
Service kind : Complete Main
Default : No
Forced : No
Text #1
ID : 4
Format : UTF-8
Codec ID : S_TEXT/UTF8
Codec ID/Info : UTF-8 Plain Text
Duration : 1 h 0 min
Bit rate : 0 b/s
Frame rate : 0.003 FPS
Count of elements : 12
Stream size : 388 Bytes (0%)
Title : Russian forced
Language : Russian
Default : No
Forced : No
Text #2
ID : 5
Format : UTF-8
Codec ID : S_TEXT/UTF8
Codec ID/Info : UTF-8 Plain Text
Duration : 1 h 26 min
Bit rate : 36 b/s
Frame rate : 0.157 FPS
Count of elements : 816
Stream size : 23.5 KiB (0%)
Title : English full
Language : English
Default : No
Forced : No
Text #3
ID : 6
Format : UTF-8
Codec ID : S_TEXT/UTF8
Codec ID/Info : UTF-8 Plain Text
Duration : 1 h 30 min
Bit rate : 39 b/s
Frame rate : 0.176 FPS
Count of elements : 959
Stream size : 26.5 KiB (0%)
Title : English SDH
Language : English
Default : No
Forced : No
Menu
00:00:00.000 : en:Глава 01
00:07:04.708 : en:Глава 02
00:14:09.333 : en:Глава 03
00:21:04.250 : en:Глава 04
00:28:41.541 : en:Глава 05
00:34:14.500 : en:Глава 06
00:42:56.041 : en:Глава 07
00:48:42.583 : en:Глава 08
00:57:17.750 : en:Глава 09
01:06:00.791 : en:Глава 10
01:14:00.916 : en:Глава 11
01:19:56.916 : en:Глава 12
Скачать
Советуем установить VPN чтобы скрыть ваш IP-адрес
Сайт не распространяет и не хранит электронные версии произведений, а лишь предоставляет доступ к создаваемому пользователями каталогу ссылок на торрент-файлы, которые содержат только списки хеш-сумм
Как скачивать? (для скачивания .torrent файлов необходима регистрация)
[Профиль] [ЛС]
Показать сообщения:    

Текущее время: Сегодня 10:23

Часовой пояс: GMT + 4



Вы не можете начинать темы
Вы не можете отвечать на сообщения
Вы не можете редактировать свои сообщения
Вы не можете удалять свои сообщения
Вы не можете голосовать в опросах
Вы не можете прикреплять файлы к сообщениям
Вы не можете скачивать файлы