Скачать торрент Дурные деньги / Dumb Money (2023) WEB-DLRip 720p | A

 
Автор Сообщение

bazalt ®

Стаж: 13 лет

Сообщений: 2181

Пост Пост: #1 от 20-Апр-2024 18:55

[Цитировать]

Информация о фильме
Название: Дурные деньги
Оригинальное название: Dumb Money
Год выхода: 2023
Жанр: биография, комедия, драма
Режиссер: Крэйг Гиллеспи
В ролях: Сет Роген, Пол Дано, Себастьян Стэн, Пит Дэвидсон, Шейлин Вудли, Ник Офферман, Винсент Д`Онофрио, Клэнси Браун, Дэйн ДеХаан, Америка Феррера

О фильме:
Говорят, что миром правят деньги. А деньгами распоряжается Уолл-Стрит. И если на самом верху решили, что небольшая сеть магазинов видеоигр должна обанкротиться, то под это можно брать кредит в банке. Но однажды обычные люди сказали «нет» и дали бой мировым биржам. Геймеры, тик-токеры, домохозяйки и мелкие инвесторы принялись скупать акции и «сломали» Уолл-Стрит, попутно заработав дурные деньги.
Выпущено: США
Продолжительность: 01:45:02
Перевод #1: Дублированный | Велес
Перевод #2: Профессиональный (многоголосый, закадровый) | TVShows
Перевод #3: Авторский (одноголосый закадровый) | М. Яроцкий | 18 +
Субтитры: Русские (Forced, full), английские
Файл
Формат: Matroska
Качество: HDRip-AVC
Видео: 1024x428 at 23.976 fps, x264@L4.1, ~1551 kbps
Аудио 1: AC3, 6 ch, ~384 kbps - | Русский | | Велес
Аудио 2: AC3, 6 ch, ~384 kbps - | Русский | | TVShows
Аудио 3: AC3, 6 ch, ~448 kbps - | Русский | | М. Яроцкий
Аудио 4: AC3, 6 ch, ~448 kbps - | Английский | | Original
Формат субтитров: softsub (SRT)



В дубляже присутствуют вставки с многоголосого закадрового перевода от TVShows. Работа со звуком: селезень.

M/I

x264 [info]: frame I:1533 Avg QP:12.28 size: 67615
x264 [info]: frame P:31306 Avg QP:14.23 size: 16537
x264 [info]: frame B:118265 Avg QP:16.40 size: 5080
General
Unique ID : 50290765399963079717693766608024411582 (0x25D5A62B7B9611F30D5AFE90E5C69DBE)
Complete name : S:Dumb.Money.2023.D.P.A.HDRip.x264.seleZen.mkv
Format : Matroska
Format version : Version 4
File size : 2.36 GiB
Duration : 1 h 45 min
Overall bit rate : 3 219 kb/s
Frame rate : 23.976 FPS
Movie name : Dumb.Money.2023.D.P.A.HDRip.x264.seleZen
Encoded date : 2024-02-17 14:59:02 UTC
Writing application : mkvmerge v82.0 ('I'm The President') 64-bit
Writing library : libebml v1.4.5 + libmatroska v1.7.1
Cover : Yes
Attachments : cover.jpg / small_cover.jpg
Video
ID : 1
Format : AVC
Format/Info : Advanced Video Codec
Format profile : High@L4.1
Format settings : CABAC / 12 Ref Frames
Format settings, CABAC : Yes
Format settings, Reference : 12 frames
Codec ID : V_MPEG4/ISO/AVC
Duration : 1 h 45 min
Bit rate : 1 551 kb/s
Width : 1 024 pixels
Height : 428 pixels
Display aspect ratio : 2.40:1
Frame rate mode : Constant
Frame rate : 23.976 (24000/1001) FPS
Color space : YUV
Chroma subsampling : 4:2:0
Bit depth : 8 bits
Scan type : Progressive
Bits/(Pixel*Frame) : 0.148
Stream size : 1.14 GiB (48%)
Title :
Writing library : x264 core 164 r3172 -DoMiNo
Encoding settings : cabac=1 / ref=12 / deblock=1:-2:-2 / analyse=0x3:0x133 / me=umh / subme=10 / psy=1 / psy_rd=1.05:0.05 / mixed_ref=1 / me_range=32 / chroma_me=1 / trellis=2 / 8x8dct=1 / cqm=0 / deadzone=21,11 / fast_pskip=0 / chroma_qp_offset=-3 / threads=17 / lookahead_threads=3 / sliced_threads=0 / nr=0 / decimate=1 / interlaced=0 / bluray_compat=0 / constrained_intra=0 / bframes=10 / b_pyramid=2 / b_adapt=2 / b_bias=0 / direct=3 / weightb=1 / open_gop=0 / weightp=2 / keyint=250 / keyint_min=23 / scenecut=40 / intra_refresh=0 / rc_lookahead=60 / rc=crf / mbtree=0 / crf=17.0 / qcomp=0.60 / qpmin=0 / qpmax=69 / qpstep=4 / vbv_maxrate=50000 / vbv_bufsize=62500 / crf_max=0.0 / nal_hrd=none / filler=0 / ip_ratio=1.40 / pb_ratio=1.16 / aq=3:0.80
Language : English
Default : Yes
Forced : No
Audio #1
ID : 2
Format : AC-3
Format/Info : Audio Coding 3
Commercial name : Dolby Digital
Codec ID : A_AC3
Duration : 1 h 45 min
Bit rate mode : Constant
Bit rate : 384 kb/s
Channel(s) : 6 channels
Channel layout : L R C LFE Ls Rs
Sampling rate : 48.0 kHz
Frame rate : 31.250 FPS (1536 SPF)
Compression mode : Lossy
Stream size : 288 MiB (12%)
Title : Dub_Veles
Language : Russian
Service kind : Complete Main
Default : Yes
Forced : No
Audio #2
ID : 3
Format : AC-3
Format/Info : Audio Coding 3
Commercial name : Dolby Digital
Codec ID : A_AC3
Duration : 1 h 45 min
Bit rate mode : Constant
Bit rate : 384 kb/s
Channel(s) : 6 channels
Channel layout : L R C LFE Ls Rs
Sampling rate : 48.0 kHz
Frame rate : 31.250 FPS (1536 SPF)
Compression mode : Lossy
Stream size : 288 MiB (12%)
Title : MVO_TVShows
Language : Russian
Service kind : Complete Main
Default : Yes
Forced : No
Audio #3
ID : 4
Format : AC-3
Format/Info : Audio Coding 3
Commercial name : Dolby Digital
Codec ID : A_AC3
Duration : 1 h 45 min
Bit rate mode : Constant
Bit rate : 448 kb/s
Channel(s) : 6 channels
Channel layout : L R C LFE Ls Rs
Sampling rate : 48.0 kHz
Frame rate : 31.250 FPS (1536 SPF)
Compression mode : Lossy
Stream size : 337 MiB (14%)
Title : AVO_Yarotsky
Language : Russian
Service kind : Complete Main
Default : No
Forced : No
Audio #4
ID : 5
Format : AC-3
Format/Info : Audio Coding 3
Commercial name : Dolby Digital
Codec ID : A_AC3
Duration : 1 h 45 min
Bit rate mode : Constant
Bit rate : 448 kb/s
Channel(s) : 6 channels
Channel layout : L R C LFE Ls Rs
Sampling rate : 48.0 kHz
Frame rate : 31.250 FPS (1536 SPF)
Compression mode : Lossy
Stream size : 337 MiB (14%)
Title : Original.
Language : English
Service kind : Complete Main
Default : No
Forced : No
Text #1
ID : 6
Format : UTF-8
Codec ID : S_TEXT/UTF8
Codec ID/Info : UTF-8 Plain Text
Duration : 1 h 37 min
Bit rate : 14 b/s
Frame rate : 0.030 FPS
Count of elements : 173
Stream size : 10.00 KiB (0%)
Title : Forced
Language : Russian
Default : No
Forced : No
Text #2
ID : 7
Format : UTF-8
Codec ID : S_TEXT/UTF8
Codec ID/Info : UTF-8 Plain Text
Duration : 1 h 35 min
Bit rate : 160 b/s
Frame rate : 0.274 FPS
Count of elements : 1564
Stream size : 112 KiB (0%)
Title : Full
Language : Russian
Default : No
Forced : No
Text #3
ID : 8
Format : UTF-8
Codec ID : S_TEXT/UTF8
Codec ID/Info : UTF-8 Plain Text
Duration : 1 min 10 s
Bit rate : 33 b/s
Frame rate : 0.184 FPS
Count of elements : 13
Stream size : 298 Bytes (0%)
Title : Forced
Language : English
Default : No
Forced : No
Text #4
ID : 9
Format : UTF-8
Codec ID : S_TEXT/UTF8
Codec ID/Info : UTF-8 Plain Text
Duration : 1 h 40 min
Bit rate : 97 b/s
Frame rate : 0.318 FPS
Count of elements : 1917
Stream size : 71.3 KiB (0%)
Title : Full
Language : English
Default : No
Forced : No
Text #5
ID : 10
Format : UTF-8
Codec ID : S_TEXT/UTF8
Codec ID/Info : UTF-8 Plain Text
Duration : 1 h 41 min
Bit rate : 101 b/s
Frame rate : 0.332 FPS
Count of elements : 2021
Stream size : 75.7 KiB (0%)
Title : SDH
Language : English
Default : No
Forced : No
Menu
00:00:00.000 : Chapter 01
00:03:53.442 : Chapter 02
00:08:23.712 : Chapter 03
00:13:54.542 : Chapter 04
00:19:02.141 : Chapter 05
00:23:39.251 : Chapter 06
00:28:28.165 : Chapter 07
00:36:45.495 : Chapter 08
00:44:59.614 : Chapter 09
00:52:49.792 : Chapter 10
01:00:15.737 : Chapter 11
01:08:17.010 : Chapter 12
01:12:48.531 : Chapter 13
01:20:52.056 : Chapter 14
01:27:06.054 : Chapter 15
01:34:12.730 : Chapter 16
01:38:18.935 : Chapter 17
Скачать
Советуем установить VPN чтобы скрыть ваш IP-адрес
Сайт не распространяет и не хранит электронные версии произведений, а лишь предоставляет доступ к создаваемому пользователями каталогу ссылок на торрент-файлы, которые содержат только списки хеш-сумм
Как скачивать? (для скачивания .torrent файлов необходима регистрация)
[Профиль] [ЛС]
Показать сообщения:    

Текущее время: Сегодня 10:04

Часовой пояс: GMT + 4



Вы не можете начинать темы
Вы не можете отвечать на сообщения
Вы не можете редактировать свои сообщения
Вы не можете удалять свои сообщения
Вы не можете голосовать в опросах
Вы не можете прикреплять файлы к сообщениям
Вы не можете скачивать файлы