Скачать торрент Париж. Всё включено / La vie pour de vrai / Life for Real (2023) BDRip 720p | D

 
Автор Сообщение

bazalt ®

Стаж: 13 лет

Сообщений: 2181

Пост Пост: #1 от 20-Апр-2024 14:35

[Цитировать]

Информация о фильме
Название: Париж. Всё включено
Оригинальное название: La vie pour de vrai / Life for Real
Год выхода: 2023
Жанр: комедия
Режиссер: Дэни Бун
В ролях: Дэни Бун, Кад Мерад, Шарлотта Генсбур, Максим Гастой, Каролин Англад, Аврора Клеман, Гаэль Раэс, Сара Бун, Майбелль Билла Снодграсс, Татьяна Гуссефф

О фильме: Тридан всю жизнь живёт и работает на мексиканском курорте. В свои 50 лет он решает отправиться в Париж на поиски любви детства - Виолетты. Там он останавливается у сводного брата Луи, о существовании которого никогда не подозревал. Тот же, желая избавиться от Тридана, просит свою подругу выдать себя за Виолетту.
Страна: Франция, Бельгия
Студия: 26 DB Productions, Artémis Productions, Beside Productions, Beside Tax Shelter, Canal+ [fr], Ciné, Le Tax Shelter du Gouvernement Fédéral de Belgique, Logical Content Ventures, Pathé Films, Shelter Prod, Taxshelter. be, TF1, Wallimages
Продолжительность: 01:48:58
Перевод: Дублированный | Мосфильм-Мастер
Качество: BDRip 720p
Видео: MPEG-4 AVC, 1280x534, 4404 Кbit/s, 24.000 fps
Аудио #01: 48 kHz, AC3, 5.1, 640 Kbps | Дублированный | Мосфильм-Мастер | RUS |
Аудио #02: 48 kHz, AC3, 5.1, 640 Kbps | Оригинал | FRE |
Субтитры: Французские

MI

General
Unique ID : 13736339903829879600919074946037992789 (0xA5585D87ECE98D99B9EE75E6F4E4D55)
Complete name : G:VideoGLa.Vie.Pour.De.Vrai.2023.BDRip.720p.seleZen.mkv
Format : Matroska
Format version : Version 4
File size : 4.33 GiB
Duration : 1 h 48 min
Overall bit rate : 5 687 kb/s
Frame rate : 24.000 FPS
Movie name : La.Vie.Pour.De.Vrai.2023 from seleZen
Encoded date : 2023-10-19 09:07:52 UTC
Writing application : mkvmerge v63.0.0 ('Everything') 64-bit
Writing library : libebml v1.4.2 + libmatroska v1.6.4
Video
ID : 1
Format : AVC
Format/Info : Advanced Video Codec
Format profile : High@L4.1
Format settings : CABAC / 12 Ref Frames
Format settings, CABAC : Yes
Format settings, Reference frames : 12 frames
Codec ID : V_MPEG4/ISO/AVC
Duration : 1 h 48 min
Bit rate : 4 404 kb/s
Width : 1 280 pixels
Height : 534 pixels
Display aspect ratio : 2.40:1
Frame rate mode : Constant
Frame rate : 24.000 FPS
Color space : YUV
Chroma subsampling : 4:2:0
Bit depth : 8 bits
Scan type : Progressive
Bits/(Pixel*Frame) : 0.268
Stream size : 3.35 GiB (77%)
Writing library : x264 core 164 r3107+58M ae98796 t_mod_New [(8 & 10)-seleZen X86_64]
Encoding settings : cabac=1 / ref=12 / deblock=1:-2:-2 / analyse=0x3:0x133 / me=umh / subme=10 / psy=1 / fade_compensate=0.00 / psy_rd=1.01:0.00 / mixed_ref=1 / me_range=32 / chroma_me=1 / trellis=2 / 8x8dct=1 / cqm=0 / deadzone=21,11 / fast_pskip=0 / chroma_qp_offset=-2 / threads=17 / lookahead_threads=2 / sliced_threads=0 / nr=0 / decimate=0 / interlaced=0 / bluray_compat=0 / constrained_intra=0 / fgo=0 / bframes=9 / b_pyramid=2 / b_adapt=2 / b_bias=0 / direct=1 / weightb=1 / open_gop=0 / weightp=2 / keyint=240 / keyint_min=23 / scenecut=40 / intra_refresh=0 / rc_lookahead=60 / rc=crf / mbtree=0 / crf=17.4000 / qcomp=0.60 / qpmin=0:0:0 / qpmax=51:51:51 / qpstep=4 / vbv_maxrate=50000 / vbv_bufsize=62500 / crf_max=0.0 / nal_hrd=none / filler=0 / ip_ratio=1.40 / pb_ratio=1.30 / aq=3:0.80 / aq-sensitivity=10.00 / aq-factor=1.00:1.00:1.00:1.00 / aq2=0 / aq3=0
Language : English
Default : Yes
Forced : No
Audio #1
ID : 2
Format : AC-3
Format/Info : Audio Coding 3
Commercial name : Dolby Digital
Codec ID : A_AC3
Duration : 1 h 48 min
Bit rate mode : Constant
Bit rate : 640 kb/s
Channel(s) : 6 channels
Channel layout : L R C LFE Ls Rs
Sampling rate : 48.0 kHz
Frame rate : 31.250 FPS (1536 SPF)
Compression mode : Lossy
Stream size : 499 MiB (11%)
Title : Dub
Language : Russian
Service kind : Complete Main
Default : Yes
Forced : No
Audio #2
ID : 3
Format : AC-3
Format/Info : Audio Coding 3
Commercial name : Dolby Digital
Codec ID : A_AC3
Duration : 1 h 48 min
Bit rate mode : Constant
Bit rate : 640 kb/s
Channel(s) : 6 channels
Channel layout : L R C LFE Ls Rs
Sampling rate : 48.0 kHz
Frame rate : 31.250 FPS (1536 SPF)
Compression mode : Lossy
Stream size : 499 MiB (11%)
Title : Original
Language : French
Service kind : Complete Main
Default : No
Forced : No
Text #1
ID : 4
Format : UTF-8
Codec ID : S_TEXT/UTF8
Codec ID/Info : UTF-8 Plain Text
Duration : 6 s 250 ms
Bit rate : 135 b/s
Frame rate : 0.480 FPS
Count of elements : 3
Stream size : 106 Bytes (0%)
Title : Forced
Language : French
Default : No
Forced : No
Text #2
ID : 5
Format : UTF-8
Codec ID : S_TEXT/UTF8
Codec ID/Info : UTF-8 Plain Text
Duration : 1 h 44 min
Bit rate : 76 b/s
Frame rate : 0.314 FPS
Count of elements : 1967
Stream size : 58.3 KiB (0%)
Title : SDH
Language : French
Default : No
Forced : No
Menu
00:00:00.000 : fr:Chapitre 01
00:07:58.083 : fr:Chapitre 02
00:18:47.042 : fr:Chapitre 03
00:30:55.792 : fr:Chapitre 04
00:39:19.917 : fr:Chapitre 05
00:48:36.708 : fr:Chapitre 06
00:57:02.458 : fr:Chapitre 07
01:04:59.833 : fr:Chapitre 08
01:16:11.000 : fr:Chapitre 09
01:26:58.333 : fr:Chapitre 10
01:36:56.625 : fr:Chapitre 11
01:45:00.583 : fr:Chapitre 12
Скачать
Советуем установить VPN чтобы скрыть ваш IP-адрес
Сайт не распространяет и не хранит электронные версии произведений, а лишь предоставляет доступ к создаваемому пользователями каталогу ссылок на торрент-файлы, которые содержат только списки хеш-сумм
Как скачивать? (для скачивания .torrent файлов необходима регистрация)
[Профиль] [ЛС]
Показать сообщения:    

Текущее время: Сегодня 09:57

Часовой пояс: GMT + 4



Вы не можете начинать темы
Вы не можете отвечать на сообщения
Вы не можете редактировать свои сообщения
Вы не можете удалять свои сообщения
Вы не можете голосовать в опросах
Вы не можете прикреплять файлы к сообщениям
Вы не можете скачивать файлы