Скачать торрент Корица / Принцесса бензоколонки / Cinnamon (2023) WEB-DL 1080p | P

 
Автор Сообщение

bazalt ®

Стаж: 13 лет

Сообщений: 2181

Пост Пост: #1 от 19-Апр-2024 11:15

[Цитировать]


Информация о фильме
Название: Корица / Принцесса бензоколонки
Оригинальное название: Cinnamon
Год выпуска: 2023
Жанр: триллер, криминал
Выпущено: США / Fox Entertainment Studios, Village Roadshow Entertainment Group
Режиссер: Бриан Кит Монтгомери мл.
В ролях: Пэм Гриер, Дэймон Уайанс, Дэн Лория, Дэвид Яконо, Хейли Килгор, Лорен Бульоли, Джейсон Лодер, Джереми Харрис, Джейсон Вендрайс, Л. Уоррен Янг
Описание: Джоди Джексон работает на маленькой заправке, разочарованная своей жизнью и тем, что она не стала певицей. Однажды к ней на заправку приходит молодой мошенник Эдди. Он хочет ограбить девушку, но в итоге влюбляется в нее. Вдвоем парочка решает совершить преступление, которое помогло бы им исполнить их мечты и стать свободными.

Продолжительность: 01:28:21
Перевод: Многоголосый профессиональный (Официальный, OKKO)
Субтитры: Отсутствуют
Файл
Формат: MKV
Качество: WEB-DL 1080p
Видео: AVC/H.264, 1920x1040, ~5000 Kbps
Аудио 1: E-AC3, 6 ch, 384 Kbps - Русский (MVO)
Аудио 2: AC3, 6 ch, 384 Kbps - Русский (MVO)
karfagen1975

MediaInfo:

General
Unique ID : 283701202649426741637707500530263681480 (0xD56EDD388C8F7336E6C5207F53B869C8)
Complete name : Cinnamon.2023.WEB-DL.1080p.mkv
Format : Matroska
Format version : Version 4
File size : 3.43 GiB
Duration : 1 h 28 min
Overall bit rate : 5 551 kb/s
Frame rate : 23.976 FPS
Encoded date : 2024-04-07 07:51:40 UTC
Writing application : mkvmerge v75.0.0 ('Goliath') 64-bit
Writing library : libebml v1.4.4 + libmatroska v1.7.1
Video
ID : 1
Format : AVC
Format/Info : Advanced Video Codec
Format profile : High@L4
Format settings : CABAC / 3 Ref Frames
Format settings, CABAC : Yes
Format settings, Reference frames : 3 frames
Codec ID : V_MPEG4/ISO/AVC
Duration : 1 h 28 min
Bit rate : 5 000 kb/s
Width : 1 920 pixels
Height : 1 040 pixels
Display aspect ratio : 1.85:1
Frame rate mode : Constant
Frame rate : 23.976 (24000/1001) FPS
Color space : YUV
Chroma subsampling : 4:2:0
Bit depth : 8 bits
Scan type : Progressive
Bits/(Pixel*Frame) : 0.104
Stream size : 2.95 GiB (86%)
Title : Корица (2023) WEB-DL 1080p
Writing library : x264 core 164 r3095 baee400
Encoding settings : cabac=1 / ref=4 / deblock=1:-1:-1 / analyse=0x3:0x133 / me=umh / subme=9 / psy=1 / psy_rd=0.40:1.00 / mixed_ref=1 / me_range=24 / chroma_me=1 / trellis=0 / 8x8dct=1 / cqm=0 / deadzone=21,11 / fast_pskip=1 / chroma_qp_offset=-2 / threads=3 / lookahead_threads=1 / sliced_threads=0 / nr=0 / decimate=1 / interlaced=0 / bluray_compat=0 / stitchable=1 / constrained_intra=0 / bframes=8 / b_pyramid=1 / b_adapt=0 / b_bias=0 / direct=3 / weightb=1 / open_gop=0 / weightp=2 / keyint=71 / keyint_min=36 / scenecut=0 / intra_refresh=0 / rc_lookahead=40 / rc=2pass / mbtree=1 / bitrate=5000 / ratetol=1.0 / qcomp=0.80 / qpmin=1 / qpmax=69 / qpstep=4 / cplxblur=20.0 / qblur=0.5 / vbv_maxrate=7500 / vbv_bufsize=10000 / nal_hrd=none / filler=0 / ip_ratio=1.40 / aq=1:1.00
Language : English
Default : Yes
Forced : No
Color range : Limited
Color primaries : BT.709
Transfer characteristics : BT.709
Matrix coefficients : BT.709
Audio #1
ID : 2
Format : E-AC-3
Format/Info : Enhanced AC-3
Commercial name : Dolby Digital Plus
Codec ID : A_EAC3
Duration : 1 h 28 min
Bit rate mode : Constant
Bit rate : 384 kb/s
Channel(s) : 6 channels
Channel layout : L R C LFE Ls Rs
Sampling rate : 48.0 kHz
Frame rate : 31.250 FPS (1536 SPF)
Compression mode : Lossy
Stream size : 243 MiB (7%)
Title : MVO
Language : Russian
Service kind : Complete Main
Default : No
Forced : No
Audio #2
ID : 3
Format : AC-3
Format/Info : Audio Coding 3
Commercial name : Dolby Digital
Codec ID : A_AC3
Duration : 1 h 28 min
Bit rate mode : Constant
Bit rate : 384 kb/s
Channel(s) : 6 channels
Channel layout : L R C LFE Ls Rs
Sampling rate : 48.0 kHz
Frame rate : 31.250 FPS (1536 SPF)
Compression mode : Lossy
Stream size : 243 MiB (7%)
Title : MVO
Language : Russian
Service kind : Complete Main
Default : No
Forced : No

Скриншоты

Дополнительные скриншоты:

Скачать
Советуем установить VPN чтобы скрыть ваш IP-адрес
Сайт не распространяет и не хранит электронные версии произведений, а лишь предоставляет доступ к создаваемому пользователями каталогу ссылок на торрент-файлы, которые содержат только списки хеш-сумм
Как скачивать? (для скачивания .torrent файлов необходима регистрация)
[Профиль] [ЛС]
Показать сообщения:    

Текущее время: Сегодня 10:35

Часовой пояс: GMT + 4



Вы не можете начинать темы
Вы не можете отвечать на сообщения
Вы не можете редактировать свои сообщения
Вы не можете удалять свои сообщения
Вы не можете голосовать в опросах
Вы не можете прикреплять файлы к сообщениям
Вы не можете скачивать файлы