Скачать торрент Корица / Принцесса бензоколонки / Cinnamon (2023) WEB-DLRip-AVC | P | OKKO

 
Автор Сообщение

bazalt ®

Стаж: 13 лет

Сообщений: 2181

Пост Пост: #1 от 19-Апр-2024 11:05

[Цитировать]

Информация о фильме
Название: Корица / Принцесса бензоколонки
Оригинальное название: Cinnamon
Год выпуска: 2023
Жанр: триллер, криминал
Режиссер: Бриан Кит Монтгомери мл.
В ролях: Пэм Гриер, Дэймон Уайанс, Дэн Лория, Дэвид Яконо, Хейли Килгор, Лорен Бульоли, Джейсон Лодер, Джереми Харрис, Джейсон Вендрайс, Л. Уоррен Янг

Описание:
Джоди Джексон работает на маленькой заправке, разочарованная своей жизнью и тем, что она не стала певицей. Однажды к ней на заправку приходит молодой мошенник Эдди. Он хочет ограбить девушку, но в итоге влюбляется в нее. Вдвоем парочка решает совершить преступление, которое помогло бы им исполнить их мечты и стать свободными.
Выпущено: США / Fox Entertainment Studios, Village Roadshow Entertainment Group
Продолжительность: 01:28:21
Перевод: Профессиональный (многоголосый, закадровый) | OKKO
Файл
Формат: Matroska
Качество: WEB-DLRip-AVC
Видео: 1024x552 at 23.976 fps, x264@L4.1, ~1834 kbps
Аудио: AC3, 6 ch, ~384 kbps - | Русский |
Субтитры: Отсутствуют

M/I

x264 [info]: frame I:1215 Avg QP:14.57 size: 57469
x264 [info]: frame P:23408 Avg QP:16.64 size: 22299
x264 [info]: frame B:102482 Avg QP:17.73 size: 6078
General
Unique ID : 9524159527475912161393987850120199592 (0x72A4951B37647963142A0932F1FFDA8)
Complete name : I:Cinnamon.2023.MVO.WEB-DLRip.x264.seleZen.mkv
Format : Matroska
Format version : Version 4
File size : 1.37 GiB
Duration : 1 h 28 min
Overall bit rate : 2 219 kb/s
Frame rate : 23.976 FPS
Movie name : Cinnamon.2023.MVO.WEB-DLRip.x264.seleZen
Encoded date : 2024-04-07 17:17:43 UTC
Writing application : mkvmerge v83.0 ('Circle Of Friends') 64-bit
Writing library : libebml v1.4.5 + libmatroska v1.7.1
Cover : Yes
Attachments : cover.jpg / small_cover.jpg
Video
ID : 1
Format : AVC
Format/Info : Advanced Video Codec
Format profile : High@L4.1
Format settings : CABAC / 12 Ref Frames
Format settings, CABAC : Yes
Format settings, Reference : 12 frames
Codec ID : V_MPEG4/ISO/AVC
Duration : 1 h 28 min
Bit rate : 1 834 kb/s
Width : 1 024 pixels
Height : 552 pixels
Display aspect ratio : 1.85:1
Frame rate mode : Constant
Frame rate : 23.976 (24000/1001) FPS
Color space : YUV
Chroma subsampling : 4:2:0
Bit depth : 8 bits
Scan type : Progressive
Bits/(Pixel*Frame) : 0.135
Stream size : 1.13 GiB (83%)
Title :
Writing library : x264 core 164 r3190 -DoMiNo
Encoding settings : cabac=1 / ref=12 / deblock=1:-2:-1 / analyse=0x3:0x133 / me=umh / subme=10 / psy=1 / psy_rd=1.02:0.03 / mixed_ref=1 / me_range=32 / chroma_me=1 / trellis=2 / 8x8dct=1 / cqm=0 / deadzone=21,11 / fast_pskip=0 / chroma_qp_offset=-3 / threads=17 / lookahead_threads=4 / sliced_threads=0 / nr=0 / decimate=0 / interlaced=0 / bluray_compat=0 / constrained_intra=0 / bframes=10 / b_pyramid=2 / b_adapt=2 / b_bias=0 / direct=3 / weightb=1 / open_gop=0 / weightp=2 / keyint=240 / keyint_min=23 / scenecut=40 / intra_refresh=0 / rc_lookahead=60 / rc=2pass / mbtree=0 / bitrate=1834 / ratetol=1.0 / qcomp=0.60 / qpmin=0 / qpmax=69 / qpstep=4 / cplxblur=20.0 / qblur=0.5 / vbv_maxrate=50000 / vbv_bufsize=62500 / nal_hrd=none / filler=0 / ip_ratio=1.20 / pb_ratio=1.30 / aq=1:0.80
Language : English
Default : Yes
Forced : No
Color range : Limited
Color primaries : BT.709
Transfer characteristics : BT.709
Matrix coefficients : BT.709
Audio
ID : 2
Format : AC-3
Format/Info : Audio Coding 3
Commercial name : Dolby Digital
Codec ID : A_AC3
Duration : 1 h 28 min
Bit rate mode : Constant
Bit rate : 384 kb/s
Channel(s) : 6 channels
Channel layout : L R C LFE Ls Rs
Sampling rate : 48.0 kHz
Frame rate : 31.250 FPS (1536 SPF)
Compression mode : Lossy
Stream size : 243 MiB (17%)
Title : MVO
Language : Russian
Service kind : Complete Main
Default : Yes
Forced : No
Menu
00:00:00.000 : en:Chapter 01
00:05:50.000 : en:Chapter 02
00:11:40.000 : en:Chapter 03
00:17:30.000 : en:Chapter 04
00:23:20.000 : en:Chapter 05
00:29:10.000 : en:Chapter 06
00:35:00.000 : en:Chapter 07
00:40:50.000 : en:Chapter 08
00:46:40.000 : en:Chapter 09
00:52:30.000 : en:Chapter 10
00:58:20.000 : en:Chapter 11
01:04:10.000 : en:Chapter 12
01:10:00.000 : en:Chapter 13
01:15:50.000 : en:Chapter 14
01:21:40.000 : en:Chapter 15
01:27:30.000 : en:Chapter 16
Скачать
Советуем установить VPN чтобы скрыть ваш IP-адрес
Сайт не распространяет и не хранит электронные версии произведений, а лишь предоставляет доступ к создаваемому пользователями каталогу ссылок на торрент-файлы, которые содержат только списки хеш-сумм
Как скачивать? (для скачивания .torrent файлов необходима регистрация)
[Профиль] [ЛС]
Показать сообщения:    

Текущее время: Сегодня 11:56

Часовой пояс: GMT + 4



Вы не можете начинать темы
Вы не можете отвечать на сообщения
Вы не можете редактировать свои сообщения
Вы не можете удалять свои сообщения
Вы не можете голосовать в опросах
Вы не можете прикреплять файлы к сообщениям
Вы не можете скачивать файлы