Скачать торрент Бедные-несчастные / Poor Things (2023) BDRip-HEVC 1080p | P, L, A

 
Автор Сообщение

bazalt ®

Стаж: 13 лет

Сообщений: 2181

Пост Пост: #1 от 19-Апр-2024 11:05

[Цитировать]


Информация о фильме
Название: Бедные-несчастные
Оригинальное название: Poor Things
Год выхода: 2023
Жанр: драма, комедия, фантастика
Режиссер: Йоргос Лантимос
В ролях: Эмма Стоун, Уиллем Дефо, Марк Руффало, Рами Юссеф, Ханна Шигулла, Джеррод Кармайкл, Кэтрин Хантер, Сьюзи Бемба, Кристофер Эбботт, Вики Пеппердин

О фильме:
Викторианский Лондон. Сумасшедший хирург Годвин вылавливает из Темзы тело молодой беременной женщины, прыгнувшей с моста, пересаживает ей мозг её собственного нерожденного младенца и реанимирует. Белла поначалу передвигается как сломанная кукла и имеет весьма ограниченный словарный запас, но быстро учится. Чтобы наблюдать за ней, Годвин призывает на помощь студента-медика Макса, который заодно выглядит хорошей партией для девушки, но на Беллу кладет глаз плейбой-юрист Данкан Веддерберн и увлекает её в путешествие, где она познает мир и себя.
Страна: Ирландия, Великобритания, США, Венгрия
Продолжительность: 02:21:39
Перевод: Профессиональный многоголосый, любительский многоголосый, авторский одноголосый
Файл
Качество: BDRip-HEVC 1080p
Видео: HEVC/H.265, 1792х1080, ~11,0 Mbps, 23.976 fps, 10 бит
Аудио 1: AC-3, 6 ch, 384 Kbps | Русский MVO Jaskier
Аудио 2: AC-3, 2.0 ch, 384 Kbps | Русский MVO Voice Project Studio
Аудио 3: AC-3, 6 ch, 384 Kbps | Русский MVO LostFilm
Аудио 4: AC-3, 6 ch, 384 Kbps | Русский AVO Ю. Сербин
Аудио 5: AC-3, 2.0 ch, 192 Kbps | Украинский VO feofanio
Аудио 6: DTS, 6 ch, 1509 Kbps | Английский
Субтитры: Русские (Full), Украинские (Full), Английские (Full)
: mikos

M/I

[x265] frame I: 2339, Avg QP:18.34 kb/s: 37507.02
[x265] frame P: 28196, Avg QP:19.12 kb/s: 17599.03
[x265] frame B: 173261, Avg QP:21.09 kb/s: 9512.03
[x265] Weighted P-Frames: Y:6.0% UV:3.9%
[x265] consecutive B-frames: 7.0% 2.4% 4.6% 13.0% 7.7% 19.2% 8.4% 12.9% 6.0% 5.3% 4.5% 4.2% 1.7% 1.5% 1.6%
==================================================================
Общее
Уникальный идентификатор : 237036283419211587308864558295105174951 (0xB2538711BB9C849D6CF7A8C35B8C7DA7)
Полное имя : D:ТоррентPoor.Things.2023.BDRip.1080p.HEVC.10bit.MVO.mikos.mkv
Формат : Matroska
Версия формата : Version 4
Размер файла : 14,1 Гбайт
Продолжительность : 2 ч. 21 м.
Общий поток : 14,2 Мбит/сек
Частота кадров : 23,976 кадра/сек
Название фильма : Poor.Things.2023.BDRip.1080p.HEVC.10bit.MVO.mikos
Дата кодирования : 2024-03-11 16:29:37 UTC
Программа кодирования : mkvmerge v83.0 ('Circle Of Friends') 64-bit
Библиотека кодирования : libebml v1.4.5 + libmatroska v1.7.1
Обложка : Yes
Attachments : cover.jpg
Видео
Идентификатор : 1
Формат : HEVC
Формат/Информация : High Efficiency Video Coding
Профиль формата : Main 10@L4.1@High
Идентификатор кодека : V_MPEGH/ISO/HEVC
Продолжительность : 2 ч. 21 м.
Битрейт : 11,0 Мбит/сек
Ширина : 1 792 пикселя
Высота : 1 080 пикселей
Соотношение сторон : 5:3
Режим частоты кадров : Постоянный
Частота кадров : 23,976 (24000/1001) кадра/сек
Цветовое пространство : YUV
Субдискретизация насыщенности : 4:2:0
Битовая глубина : 10 бит
Бит/(Пиксели*Кадры) : 0.236
Размер потока : 10,8 Гбайт (77%)
Заголовок : Rip by mikos
Библиотека кодирования : x265 3.4 g07295ba7a:[Windows][MSVC 1920][64 bit] 10bit
Настройки программы : cpuid=1111039 / frame-threads=5 / numa-pools=16 / wpp / no-pmode / no-pme / no-psnr / no-ssim / log-level=3 / input-csp=1 / input-res=1792x1080 / interlace=0 / total-frames=0 / level-idc=41 / high-tier=1 / uhd-bd=0 / ref=4 / allow-non-conformance / no-repeat-headers / annexb / no-aud / no-hrd / info / hash=0 / no-temporal-layers / open-gop / min-keyint=223 / keyint=240 / gop-lookahead=0 / bframes=14 / b-adapt=2 / b-pyramid / bframe-bias=0 / rc-lookahead=60 / lookahead-slices=6 / scenecut=40 / hist-scenecut=0 / radl=0 / no-splice / no-intra-refresh / ctu=32 / min-cu-size=8 / no-rect / no-amp / max-tu-size=32 / tu-inter-depth=4 / tu-intra-depth=4 / limit-tu=1 / rdoq-level=2 / dynamic-rd=0.00 / no-ssim-rd / signhide / no-tskip / nr-intra=0 / nr-inter=0 / no-constrained-intra / strong-intra-smoothing / max-merge=5 / limit-refs=1 / no-limit-modes / me=3 / subme=7 / merange=57 / temporal-mvp / no-frame-dup / no-hme / weightp / no-weightb / no-analyze-src-pics / deblock=-3:-3 / no-sao / no-sao-non-deblock / rd=4 / selective-sao=0 / no-early-skip / rskip / no-fast-intra / no-tskip-fast / no-cu-lossless / b-intra / no-splitrd-skip / rdpenalty=0 / psy-rd=2.00 / psy-rdoq=1.00 / no-rd-refine / no-lossless / cbqpoffs=0 / crqpoffs=0 / rc=crf / crf=20.2 / qcomp=0.65 / qpstep=4 / stats-write=0 / stats-read=0 / vbv-maxrate=50000 / vbv-bufsize=50000 / vbv-init=0.9 / crf-max=28.0 / crf-min=0.0 / ipratio=1.40 / pbratio=1.30 / aq-mode=1 / aq-strength=1.00 / no-cutree / zone-count=0 / no-strict-cbr / qg-size=32 / no-rc-grain / qpmax=69 / qpmin=0 / no-const-vbv / sar=1 / overscan=0 / videoformat=5 / range=0 / colorprim=2 / transfer=2 / colormatrix=2 / chromaloc=0 / display-window=0 / cll=0,0 / min-luma=0 / max-luma=1023 / log2-max-poc-lsb=8 / vui-timing-info / vui-hrd-info / slices=1 / no-opt-qp-pps / no-opt-ref-list-length-pps / no-multi-pass-opt-rps / scenecut-bias=0.05 / hist-threshold=0.01 / no-opt-cu-delta-qp / no-aq-motion / no-hdr10 / no-hdr10-opt / no-dhdr10-opt / no-idr-recovery-sei / analysis-reuse-level=0 / analysis-save-reuse-level=0 / analysis-load-reuse-level=0 / scale-factor=0 / refine-intra=0 / refine-inter=0 / refine-mv=1 / refine-ctu-distortion=0 / no-limit-sao / ctu-info=0 / no-lowpass-dct / refine-analysis-type=0 / copy-pic=1 / max-ausize-factor=1.0 / no-dynamic-refine / no-single-sei / no-hevc-aq / no-svt / no-field / qp-adaptation-range=1.00 / no-scenecut-aware-qpconformance-window-offsets / right=0 / bottom=0 / decoder-max-rate=0
Язык : English
Default : Да
Forced : Нет
Цветовой диапазон : Limited
Аудио #1
Идентификатор : 2
Формат : AC-3
Формат/Информация : Audio Coding 3
Коммерческое название : Dolby Digital
Идентификатор кодека : A_AC3
Продолжительность : 2 ч. 21 м.
Вид битрейта : Постоянный
Битрейт : 384 Кбит/сек
Каналы : 6 каналов
Channel layout : L R C LFE Ls Rs
Частота : 48,0 КГц
Частота кадров : 31,250 кадров/сек (1536 SPF)
Битовая глубина : 32 бит
Метод сжатия : С потерями
Размер потока : 389 Мбайт (3%)
Заголовок : MVO Jaskier
Язык : Russian
Service kind : Complete Main
Default : Да
Forced : Нет
Аудио #2
Идентификатор : 3
Формат : AC-3
Формат/Информация : Audio Coding 3
Коммерческое название : Dolby Digital
Идентификатор кодека : A_AC3
Продолжительность : 2 ч. 21 м.
Вид битрейта : Постоянный
Битрейт : 384 Кбит/сек
Каналы : 6 каналов
Channel layout : L R C LFE Ls Rs
Частота : 48,0 КГц
Частота кадров : 31,250 кадров/сек (1536 SPF)
Битовая глубина : 32 бит
Метод сжатия : С потерями
Размер потока : 389 Мбайт (3%)
Заголовок : MVO Voice Project Studio
Язык : Russian
Service kind : Complete Main
Default : Нет
Forced : Нет
Аудио #3
Идентификатор : 4
Формат : AC-3
Формат/Информация : Audio Coding 3
Коммерческое название : Dolby Digital
Идентификатор кодека : A_AC3
Продолжительность : 2 ч. 21 м.
Вид битрейта : Постоянный
Битрейт : 384 Кбит/сек
Каналы : 2 канала
Channel layout : L R
Частота : 48,0 КГц
Частота кадров : 31,250 кадров/сек (1536 SPF)
Битовая глубина : 32 бит
Метод сжатия : С потерями
Размер потока : 389 Мбайт (3%)
Заголовок : MVO LostFilm
Язык : Russian
Service kind : Complete Main
Default : Нет
Forced : Нет
Аудио #4
Идентификатор : 5
Формат : AC-3
Формат/Информация : Audio Coding 3
Коммерческое название : Dolby Digital
Идентификатор кодека : A_AC3
Продолжительность : 2 ч. 21 м.
Вид битрейта : Постоянный
Битрейт : 384 Кбит/сек
Каналы : 6 каналов
Channel layout : L R C LFE Ls Rs
Частота : 48,0 КГц
Частота кадров : 31,250 кадров/сек (1536 SPF)
Битовая глубина : 32 бит
Метод сжатия : С потерями
Размер потока : 389 Мбайт (3%)
Заголовок : AVO Юрий Сербин
Язык : Russian
Service kind : Complete Main
Default : Нет
Forced : Нет
Аудио #5
Идентификатор : 6
Формат : AC-3
Формат/Информация : Audio Coding 3
Коммерческое название : Dolby Digital
Идентификатор кодека : A_AC3
Продолжительность : 2 ч. 21 м.
Вид битрейта : Постоянный
Битрейт : 224 Кбит/сек
Каналы : 2 канала
Channel layout : L R
Частота : 48,0 КГц
Частота кадров : 31,250 кадров/сек (1536 SPF)
Битовая глубина : 32 бит
Метод сжатия : С потерями
Размер потока : 227 Мбайт (2%)
Заголовок : VO feofanio
Язык : Ukrainian
Service kind : Complete Main
Default : Нет
Forced : Нет
Аудио #6
Идентификатор : 7
Формат : DTS
Формат/Информация : Digital Theater Systems
Идентификатор кодека : A_DTS
Продолжительность : 2 ч. 21 м.
Вид битрейта : Постоянный
Битрейт : 1 509 Кбит/сек
Каналы : 6 каналов
Channel layout : C L R Ls Rs LFE
Частота : 48,0 КГц
Частота кадров : 93,750 кадра/сек (512 SPF)
Битовая глубина : 16 бит
Метод сжатия : С потерями
Размер потока : 1,49 Гбайт (11%)
Заголовок : Original
Язык : English
Default : Нет
Forced : Нет
Текст #1
Идентификатор : 8
Формат : UTF-8
Идентификатор кодека : S_TEXT/UTF8
Идентификатор кодека/Информация : UTF-8 Plain Text
Продолжительность : 2 ч. 14 м.
Битрейт : 84 бит/сек
Частота кадров : 0,212 кадр/сек
Count of elements : 1711
Размер потока : 83,8 Кбайт (0%)
Заголовок : Полные Cool Story Blog
Язык : Russian
Default : Да
Forced : Нет
Текст #2
Идентификатор : 9
Формат : UTF-8
Идентификатор кодека : S_TEXT/UTF8
Идентификатор кодека/Информация : UTF-8 Plain Text
Продолжительность : 2 ч. 19 м.
Битрейт : 71 бит/сек
Частота кадров : 0,196 кадр/сек
Count of elements : 1645
Размер потока : 73,4 Кбайт (0%)
Заголовок : Повнi iTunes
Язык : Ukrainian
Default : Нет
Forced : Нет
Текст #3
Идентификатор : 10
Формат : UTF-8
Идентификатор кодека : S_TEXT/UTF8
Идентификатор кодека/Информация : UTF-8 Plain Text
Продолжительность : 2 ч. 20 м.
Битрейт : 53 бит/сек
Частота кадров : 0,258 кадр/сек
Count of elements : 2175
Размер потока : 55,2 Кбайт (0%)
Заголовок : Full SDH SRT
Язык : English
Default : Нет
Forced : Нет
Меню
00:00:00.000 : Глава 01
00:04:45.952 : Глава 02
00:08:06.611 : Глава 03
00:11:07.166 : Глава 04
00:15:37.311 : Глава 05
00:20:03.118 : Глава 06
00:25:37.786 : Глава 07
00:31:30.680 : Глава 08
00:36:49.040 : Глава 09
00:41:02.418 : Глава 10
00:48:25.068 : Глава 11
00:51:24.790 : Глава 12
00:59:02.997 : Глава 13
01:04:47.592 : Глава 14
01:09:34.712 : Глава 15
01:15:47.209 : Глава 16
01:22:31.154 : Глава 17
01:24:10.295 : Глава 18
01:30:57.285 : Глава 19
01:37:16.455 : Глава 20
01:43:33.332 : Глава 21
01:45:19.146 : Глава 22
01:48:23.538 : Глава 23
01:51:11.414 : Глава 24
01:58:15.296 : Глава 25
02:11:38.557 : Глава 26
02:15:59.151 : Глава 27

Скриншоты

Скачать
Советуем установить VPN чтобы скрыть ваш IP-адрес
Сайт не распространяет и не хранит электронные версии произведений, а лишь предоставляет доступ к создаваемому пользователями каталогу ссылок на торрент-файлы, которые содержат только списки хеш-сумм
Как скачивать? (для скачивания .torrent файлов необходима регистрация)
[Профиль] [ЛС]
Показать сообщения:    

Текущее время: Сегодня 10:13

Часовой пояс: GMT + 4



Вы не можете начинать темы
Вы не можете отвечать на сообщения
Вы не можете редактировать свои сообщения
Вы не можете удалять свои сообщения
Вы не можете голосовать в опросах
Вы не можете прикреплять файлы к сообщениям
Вы не можете скачивать файлы