Скачать торрент Жанна Дюбарри / Jeanne du Barry (2023) BDRip 720p | D

 
Автор Сообщение

bazalt ®

Стаж: 13 лет

Сообщений: 2181

Пост Пост: #1 от 18-Апр-2024 07:00

[Цитировать]

Информация о фильме
Название: Жанна Дюбарри
Оригинальное название: Jeanne du Barry
Год выхода: 2023
Жанр: Драма, биография, история
Режиссер: Майвенн
В ролях: Джонни Депп, Майвенн, Пьер Ришар, Ноэми Львовски, Мельвиль Пупо, Паскаль Греггори, Бенжамен Лаверн, Марианн Басле, Индия Хэйр, Давид Декрен, Луна Карпио

О фильме: Рожденная в простой семье Жанна Бекю использует все свое обаяние, чтобы пробиться в высшее общество. Однажды граф Жан-Батист Дюбарри, обогатившийся не в последнюю очередь благодаря усилиям Жанны, организовывает для своей любовницы встречу с королем, которая превосходит все ее ожидания. Между Людовиком XV и Жанной вспыхивает любовь с первого взгляда. Куртизанка помогает королю заново ощутить вкус жизни, отныне он хочет быть лишь с ней и делает Жанну своей официальной фавориткой, что приводит к большому скандалу. «Жанна Дюбарри» — историческая драма об официальной фаворитке Людовика XV с Джонни Деппом и Майвенн в главных ролях.
Страна: Франция
Студия: Casa Kafka Pictures, France 2 Cinéma, France 3 Cinéma
Продолжительность: 01:56:36
Перевод: Дублированный | Мосфильм-Мастер
Качество: BDRip 720p
Видео: MPEG-4 AVC, 1280x692, 4716 Kbit/s, 24.000 fps
Аудио #01: 48 kHz, AC3, 5.1, 384 Kbps | Дублированный | Мосфильм-Мастер | RUS |
Аудио #02: 48 kHz, E-AC3, 5.1, 384 Kbps | Дублированный | Мосфильм-Мастер | RUS |
Аудио #03: 48 kHz, AC3, 5.1, 640 Kbps | Оригинал | FRE |
Субтитры: Русские (Full), английские

MI

General
Unique ID : 162541771482348967193898394405592334585 (0x7A48680FCDFFA9F0FC017B45424B80F9)
Complete name : G:VideoGJeanne.du.Barry.2023.BDRip.720p.seleZen.mkv
Format : Matroska
Format version : Version 4
File size : 4.99 GiB
Duration : 1 h 56 min
Overall bit rate : 6 126 kb/s
Frame rate : 24.000 FPS
Movie name : Jeanne du Barry 2023 from seleZen
Encoded date : 2023-09-21 05:25:52 UTC
Writing application : mkvmerge v63.0.0 ('Everything') 64-bit
Writing library : libebml v1.4.2 + libmatroska v1.6.4
Video
ID : 1
Format : AVC
Format/Info : Advanced Video Codec
Format profile : High@L4.1
Format settings : CABAC / 9 Ref Frames
Format settings, CABAC : Yes
Format settings, Reference frames : 9 frames
Codec ID : V_MPEG4/ISO/AVC
Duration : 1 h 56 min
Bit rate : 4 716 kb/s
Width : 1 280 pixels
Height : 692 pixels
Display aspect ratio : 1.85:1
Frame rate mode : Constant
Frame rate : 24.000 FPS
Color space : YUV
Chroma subsampling : 4:2:0
Bit depth : 8 bits
Scan type : Progressive
Bits/(Pixel*Frame) : 0.222
Stream size : 3.84 GiB (77%)
Writing library : x264 core 164 r3107+58M ae98796 t_mod_New [(8 & 10)-seleZen X86_64]
Encoding settings : cabac=1 / ref=9 / deblock=1:-2:-2 / analyse=0x3:0x133 / me=umh / subme=10 / psy=1 / fade_compensate=0.00 / psy_rd=1.02:0.02 / mixed_ref=1 / me_range=32 / chroma_me=1 / trellis=2 / 8x8dct=1 / cqm=0 / deadzone=21,11 / fast_pskip=0 / chroma_qp_offset=-3 / threads=22 / lookahead_threads=3 / sliced_threads=0 / nr=0 / decimate=0 / interlaced=0 / bluray_compat=0 / constrained_intra=0 / fgo=0 / bframes=9 / b_pyramid=2 / b_adapt=2 / b_bias=0 / direct=1 / weightb=1 / open_gop=0 / weightp=2 / keyint=240 / keyint_min=24 / scenecut=40 / intra_refresh=0 / rc_lookahead=60 / rc=crf / mbtree=0 / crf=18.6000 / qcomp=0.60 / qpmin=0:0:0 / qpmax=51:51:51 / qpstep=4 / vbv_maxrate=50000 / vbv_bufsize=62500 / crf_max=0.0 / nal_hrd=none / filler=0 / ip_ratio=1.40 / pb_ratio=1.30 / aq=3:0.80 / aq-sensitivity=10.00 / aq-factor=1.00:1.00:1.00:1.00 / aq2=0 / aq3=0
Language : English
Default : Yes
Forced : No
Audio #1
ID : 2
Format : AC-3
Format/Info : Audio Coding 3
Commercial name : Dolby Digital
Codec ID : A_AC3
Duration : 1 h 56 min
Bit rate mode : Constant
Bit rate : 384 kb/s
Channel(s) : 6 channels
Channel layout : L R C LFE Ls Rs
Sampling rate : 48.0 kHz
Frame rate : 31.250 FPS (1536 SPF)
Compression mode : Lossy
Stream size : 320 MiB (6%)
Title : Dub
Language : Russian
Service kind : Complete Main
Default : Yes
Forced : No
Audio #2
ID : 3
Format : E-AC-3
Format/Info : Enhanced AC-3
Commercial name : Dolby Digital Plus
Codec ID : A_EAC3
Duration : 1 h 56 min
Bit rate mode : Constant
Bit rate : 384 kb/s
Channel(s) : 6 channels
Channel layout : L R C LFE Ls Rs
Sampling rate : 48.0 kHz
Frame rate : 31.250 FPS (1536 SPF)
Compression mode : Lossy
Stream size : 320 MiB (6%)
Title : Dub
Language : Russian
Service kind : Complete Main
Default : No
Forced : No
Audio #3
ID : 4
Format : AC-3
Format/Info : Audio Coding 3
Commercial name : Dolby Digital
Codec ID : A_AC3
Duration : 1 h 56 min
Bit rate mode : Constant
Bit rate : 640 kb/s
Channel(s) : 6 channels
Channel layout : L R C LFE Ls Rs
Sampling rate : 48.0 kHz
Frame rate : 31.250 FPS (1536 SPF)
Compression mode : Lossy
Stream size : 534 MiB (10%)
Title : Original
Language : French
Service kind : Complete Main
Default : No
Forced : No
Text #1
ID : 5
Format : UTF-8
Codec ID : S_TEXT/UTF8
Codec ID/Info : UTF-8 Plain Text
Duration : 1 h 47 min
Bit rate : 64 b/s
Frame rate : 0.135 FPS
Count of elements : 870
Stream size : 50.5 KiB (0%)
Title : Full
Language : Russian
Default : No
Forced : No
Text #2
ID : 6
Format : UTF-8
Codec ID : S_TEXT/UTF8
Codec ID/Info : UTF-8 Plain Text
Duration : 1 h 47 min
Bit rate : 32 b/s
Frame rate : 0.127 FPS
Count of elements : 825
Stream size : 26.0 KiB (0%)
Language : English
Default : No
Forced : No
Menu
00:00:00.000 : en:Глава 01
00:10:01.125 : en:Глава 02
00:18:35.458 : en:Глава 03
00:27:22.542 : en:Глава 04
00:37:42.417 : en:Глава 05
00:48:06.750 : en:Глава 06
00:57:32.250 : en:Глава 07
01:08:07.125 : en:Глава 08
01:20:42.583 : en:Глава 09
01:31:40.583 : en:Глава 10
01:42:23.917 : en:Глава 11
01:50:38.542 : en:Глава 12
Скачать
Советуем установить VPN чтобы скрыть ваш IP-адрес
Сайт не распространяет и не хранит электронные версии произведений, а лишь предоставляет доступ к создаваемому пользователями каталогу ссылок на торрент-файлы, которые содержат только списки хеш-сумм
Как скачивать? (для скачивания .torrent файлов необходима регистрация)
[Профиль] [ЛС]
Показать сообщения:    

Текущее время: Сегодня 11:21

Часовой пояс: GMT + 4



Вы не можете начинать темы
Вы не можете отвечать на сообщения
Вы не можете редактировать свои сообщения
Вы не можете удалять свои сообщения
Вы не можете голосовать в опросах
Вы не можете прикреплять файлы к сообщениям
Вы не можете скачивать файлы