Скачать торрент Тролли 3 / Trolls Band Together (2023) HDRip-AVC | D

 
Автор Сообщение

bazalt ®

Стаж: 13 лет

Сообщений: 2181

Пост Пост: #1 от 18-Апр-2024 06:20

[Цитировать]

Информация о фильме
Название: Тролли 3
Оригинальное название: Trolls Band Together
Год выпуска: 2023
Жанр: Мультфильм, фэнтези, комедия, приключения, семейный, полнометражный
Режиссер: Уолт Дорн, Тим Хейц
В ролях: Джастин Тимберлейк, Анна Кендрик, Зои Дешанель, Давид Диггс, Кристофер Минц-Плассе, Эндрю Рэннеллс, Трой Сиван, Кунал Найяр, Кевин Майкл Ричардсон, Кид Кади

Описание:
После долгой истории дружбы и бесконечных намеков на что-то большее Розочка и Цветан наконец-то официально вместе! И Розочка узнает кое-что о прошлом своего возлюбленного. Оказывается, когда-то давно он и четверо его братьев входили в состав ее любимого бой-бэнда! Но группа, как и их семья, распалась, когда Цветан был еще ребенком, и с тех пор он своих родных не видел. И теперь герои узнают, что одного из братьев Цветана похитила пара поп-злодеев. Отважные и решительные тролли отправляются в невероятное путешествие, чтобы воссоединить семью и спасти поп-культуру от забвения. «Тролли 3» — третья часть приключений троллей, которые очень любят петь.
Выпущено: США, DreamWorks Animation
Продолжительность: 01:31:28
Перевод: Дублированный (Bravo Records Georgia / Movie Dubbing)
Субтитры: Русские (форсированные на песни, полные с песнями и без), английские
Файл
Формат: Matroska
Качество: HDRip-AVC
Видео: 1024x428 at 23.976 fps, x264@L4.1, ~2277 kbps
Аудио 1: AC3, 6 ch, ~384 kbps - | Русский |
Аудио 2: AC3, 6 ch, ~448 kbps - | Английский |
Формат субтитров: softsub (SRT)


M/I

General
Unique ID : 56897782891592049597736327921660633515 (0x2ACE1D4845584A318AFE0EC6319CA1AB)
Complete name : R:Trolls.Band.Together.2023.DUB.x264.seleZen.mkv
Format : Matroska
Format version : Version 4
File size : 1.99 GiB
Duration : 1 h 31 min
Overall bit rate : 3 105 kb/s
Frame rate : 23.976 FPS
Movie name : Trolls.Band.Together.2023.DUB.x264.seleZen
Encoded date : 2024-02-16 19:01:39 UTC
Writing application : mkvmerge v82.0 ('I'm The President') 64-bit
Writing library : libebml v1.4.5 + libmatroska v1.7.1
Cover : Yes
Attachments : cover.jpg / small_cover.jpg
Video
ID : 1
Format : AVC
Format/Info : Advanced Video Codec
Format profile : High@L4.1
Format settings : CABAC / 14 Ref Frames
Format settings, CABAC : Yes
Format settings, Reference : 14 frames
Codec ID : V_MPEG4/ISO/AVC
Duration : 1 h 31 min
Bit rate : 2 277 kb/s
Width : 1 024 pixels
Height : 428 pixels
Display aspect ratio : 2.40:1
Frame rate mode : Constant
Frame rate : 23.976 (24000/1001) FPS
Color space : YUV
Chroma subsampling : 4:2:0
Bit depth : 8 bits
Scan type : Progressive
Bits/(Pixel*Frame) : 0.217
Stream size : 1.46 GiB (73%)
Title :
Writing library : x264 core 164 r3156+57M dac90dd t_mod_New [(8 & 10)-DoMiNo- X86_64]
Encoding settings : cabac=1 / ref=14 / deblock=1:-2:-2 / analyse=0x3:0x133 / me=umh / subme=10 / psy=1 / fade_compensate=0.00 / psy_rd=1.05:0.15 / mixed_ref=1 / me_range=32 / chroma_me=1 / trellis=2 / 8x8dct=1 / cqm=0 / deadzone=21,11 / fast_pskip=0 / chroma_qp_offset=-3 / threads=17 / lookahead_threads=2 / sliced_threads=0 / nr=0 / decimate=0 / interlaced=0 / bluray_compat=0 / constrained_intra=0 / fgo=0 / bframes=9 / b_pyramid=2 / b_adapt=2 / b_bias=0 / direct=1 / weightb=1 / open_gop=0 / weightp=2 / keyint=250 / keyint_min=23 / scenecut=40 / intra_refresh=0 / rc_lookahead=60 / rc=crf / mbtree=0 / crf=18.5000 / qcomp=0.60 / qpmin=0:0:0 / qpmax=69:69:69 / qpstep=4 / vbv_maxrate=50000 / vbv_bufsize=62500 / crf_max=0.0 / nal_hrd=none / filler=0 / ip_ratio=1.40 / pb_ratio=1.30 / aq=2:0.90 / aq-sensitivity=10.00 / aq-factor=1.00:1.00:1.00 / aq2=0 / aq3=0
Language : English
Default : Yes
Forced : No
Color range : Limited
Color primaries : BT.709
Transfer characteristics : BT.709
Matrix coefficients : BT.709
Audio #1
ID : 2
Format : AC-3
Format/Info : Audio Coding 3
Commercial name : Dolby Digital
Codec ID : A_AC3
Duration : 1 h 31 min
Bit rate mode : Constant
Bit rate : 384 kb/s
Channel(s) : 6 channels
Channel layout : L R C LFE Ls Rs
Sampling rate : 48.0 kHz
Frame rate : 31.250 FPS (1536 SPF)
Compression mode : Lossy
Stream size : 252 MiB (12%)
Title : DUB -Bravo Records Georgia / Movie Dubbing
Language : Russian
Service kind : Complete Main
Default : Yes
Forced : No
Audio #2
ID : 3
Format : AC-3
Format/Info : Audio Coding 3
Commercial name : Dolby Digital
Codec ID : A_AC3
Duration : 1 h 31 min
Bit rate mode : Constant
Bit rate : 448 kb/s
Channel(s) : 6 channels
Channel layout : L R C LFE Ls Rs
Sampling rate : 48.0 kHz
Frame rate : 31.250 FPS (1536 SPF)
Compression mode : Lossy
Stream size : 293 MiB (14%)
Language : English
Service kind : Complete Main
Default : No
Forced : No
Text #1
ID : 4
Format : UTF-8
Codec ID : S_TEXT/UTF8
Codec ID/Info : UTF-8 Plain Text
Duration : 1 h 27 min
Bit rate : 73 b/s
Frame rate : 0.099 FPS
Count of elements : 522
Stream size : 47.1 KiB (0%)
Title : songs
Language : Russian
Default : No
Forced : No
Text #2
ID : 5
Format : UTF-8
Codec ID : S_TEXT/UTF8
Codec ID/Info : UTF-8 Plain Text
Duration : 1 h 30 min
Bit rate : 108 b/s
Frame rate : 0.263 FPS
Count of elements : 1427
Stream size : 71.9 KiB (0%)
Title : full
Language : Russian
Default : No
Forced : No
Text #3
ID : 6
Format : UTF-8
Codec ID : S_TEXT/UTF8
Codec ID/Info : UTF-8 Plain Text
Duration : 1 h 30 min
Bit rate : 179 b/s
Frame rate : 0.360 FPS
Count of elements : 1949
Stream size : 119 KiB (0%)
Title : full+songs
Language : Russian
Default : No
Forced : No
Text #4
ID : 7
Format : UTF-8
Codec ID : S_TEXT/UTF8
Codec ID/Info : UTF-8 Plain Text
Duration : 1 h 30 min
Bit rate : 102 b/s
Frame rate : 0.358 FPS
Count of elements : 1939
Stream size : 67.5 KiB (0%)
Language : English
Default : No
Forced : No
Menu
00:00:00.000 : Chapter 1
00:03:23.495 : Chapter 2
00:07:43.213 : Chapter 3
00:09:25.482 : Chapter 4
00:12:23.284 : Chapter 5
00:17:38.849 : Chapter 6
00:22:17.419 : Chapter 7
00:26:07.608 : Chapter 8
00:30:46.595 : Chapter 9
00:35:18.992 : Chapter 10
00:40:30.762 : Chapter 11
00:42:43.644 : Chapter 12
00:47:24.425 : Chapter 13
00:53:00.678 : Chapter 14
00:57:37.371 : Chapter 15
01:02:46.888 : Chapter 16
01:07:54.612 : Chapter 17
01:14:01.395 : Chapter 18
01:18:53.187 : Chapter 19
01:21:25.839 : Chapter 20
Скачать
Советуем установить VPN чтобы скрыть ваш IP-адрес
Сайт не распространяет и не хранит электронные версии произведений, а лишь предоставляет доступ к создаваемому пользователями каталогу ссылок на торрент-файлы, которые содержат только списки хеш-сумм
Как скачивать? (для скачивания .torrent файлов необходима регистрация)
[Профиль] [ЛС]
Показать сообщения:    

Текущее время: Сегодня 10:16

Часовой пояс: GMT + 4



Вы не можете начинать темы
Вы не можете отвечать на сообщения
Вы не можете редактировать свои сообщения
Вы не можете удалять свои сообщения
Вы не можете голосовать в опросах
Вы не можете прикреплять файлы к сообщениям
Вы не можете скачивать файлы