Скачать торрент Каменщик / The Bricklayer (2023) WEB-DLRip-AVC | D

 
Автор Сообщение

bazalt ®

Стаж: 13 лет

Сообщений: 2181

Пост Пост: #1 от 15-Апр-2024 09:50

[Цитировать]

Информация о фильме
Название: Каменщик
Оригинальное название: The Bricklayer
Год выхода: 2023
Жанр: боевик, триллер
Режиссер: Ренни Харлин
В ролях: Аарон Экхарт, Нина Добрев, Клифтон Коллинз мл., Тим Блейк Нельсон, Ильфенеш Хадера, Оливер Тревена, Акис Сакеллариу, Ори Феффер, Джон Т. Вудс, Константин Адаев

О фильме:
Стив Уэйл по прозвищу Каменщик - один из лучших агентов ЦРУ, оставивший службу в прошлом. Но когда его старый знакомый организовывает серию убийств с целью подставить Управление, властям приходится вернуть Стива в игру. Теперь вместе с заносчивой напарницей Кейт они должны остановить опаснейшего противника, пока под угрозой не оказался весь мировой порядок.
Страна: США, Болгария, Греция
Студия: Eclectic Pictures Inc., Ekome, G-BASE, Millennium Films, Millennium Media, Nu Boyana Film Studios
Продолжительность: 01:45:39
Перевод: Дублированный | Мосфильм-Мастер
Субтитры: Русские (Forced -хардсаб), Английские (Full, SDH)
Файл
Формат: Matroska
Качество: WEB-DLRip-AVC | исх.4K.HEVC.SDR
Видео: 1024x426 at 25.000 fps, x264@L4.1, ~1533 kbps
Аудио: AC3, 6 ch, ~448 kbps - | Русский |
Формат субтитров: softsub (SRT)


M/I

General
Unique ID : 71278848442800002326538104079340788343 (0x359FCE8E7DBDBA8EB2B7A121BBE3DA77)
Complete name : I:The.Bricklayer.2023.DUB.WEB-DLRip.x264.seleZen.mkv
Format : Matroska
Format version : Version 4
File size : 1.46 GiB
Duration : 1 h 45 min
Overall bit rate : 1 981 kb/s
Frame rate : 25.000 FPS
Movie name : The.Bricklayer.2023.DUB.WEB-DLRip.x264.seleZen
Encoded date : 2024-01-19 10:17:07 UTC
Writing application : mkvmerge v82.0 ('I'm The President') 64-bit
Writing library : libebml v1.4.5 + libmatroska v1.7.1
Cover : Yes
Attachments : cover.jpg / small_cover.jpg
Video
ID : 1
Format : AVC
Format/Info : Advanced Video Codec
Format profile : High@L4.1
Format settings : CABAC / 12 Ref Frames
Format settings, CABAC : Yes
Format settings, Reference : 12 frames
Codec ID : V_MPEG4/ISO/AVC
Duration : 1 h 45 min
Bit rate : 1 533 kb/s
Width : 1 024 pixels
Height : 426 pixels
Display aspect ratio : 2.40:1
Frame rate mode : Constant
Frame rate : 25.000 FPS
Color space : YUV
Chroma subsampling : 4:2:0
Bit depth : 8 bits
Scan type : Progressive
Bits/(Pixel*Frame) : 0.141
Stream size : 1.13 GiB (77%)
Title :
Writing library : x264 core 164 r3173 -DoMiNo
Encoding settings : cabac=1 / ref=12 / deblock=1:-1:-1 / analyse=0x3:0x133 / me=umh / subme=10 / psy=1 / psy_rd=1.02:0.03 / mixed_ref=1 / me_range=32 / chroma_me=1 / trellis=2 / 8x8dct=1 / cqm=0 / deadzone=21,11 / fast_pskip=0 / chroma_qp_offset=-3 / threads=13 / lookahead_threads=3 / sliced_threads=0 / nr=0 / decimate=1 / interlaced=0 / bluray_compat=0 / constrained_intra=0 / bframes=12 / b_pyramid=2 / b_adapt=2 / b_bias=0 / direct=3 / weightb=1 / open_gop=0 / weightp=2 / keyint=250 / keyint_min=25 / scenecut=40 / intra_refresh=0 / rc_lookahead=60 / rc=2pass / mbtree=0 / bitrate=1533 / ratetol=1.0 / qcomp=0.70 / qpmin=0 / qpmax=69 / qpstep=4 / cplxblur=20.0 / qblur=0.5 / vbv_maxrate=50000 / vbv_bufsize=62500 / nal_hrd=none / filler=0 / ip_ratio=1.28 / pb_ratio=1.30 / aq=3:0.90
Language : English
Default : Yes
Forced : No
Audio
ID : 2
Format : AC-3
Format/Info : Audio Coding 3
Commercial name : Dolby Digital
Codec ID : A_AC3
Duration : 1 h 45 min
Bit rate mode : Constant
Bit rate : 448 kb/s
Channel(s) : 6 channels
Channel layout : L R C LFE Ls Rs
Sampling rate : 48.0 kHz
Frame rate : 31.250 FPS (1536 SPF)
Compression mode : Lossy
Stream size : 338 MiB (23%)
Title : Дублированный | Мосфильм-Мастер
Language : Russian
Service kind : Complete Main
Default : Yes
Forced : No
Text #1
ID : 3
Format : UTF-8
Codec ID : S_TEXT/UTF8
Codec ID/Info : UTF-8 Plain Text
Duration : 1 h 35 min
Bit rate : 45 b/s
Frame rate : 0.189 FPS
Count of elements : 1078
Stream size : 31.5 KiB (0%)
Language : English
Default : No
Forced : No
Text #2
ID : 4
Format : UTF-8
Codec ID : S_TEXT/UTF8
Codec ID/Info : UTF-8 Plain Text
Duration : 1 h 35 min
Bit rate : 47 b/s
Frame rate : 0.203 FPS
Count of elements : 1165
Stream size : 33.1 KiB (0%)
Title : SDH
Language : English
Default : No
Forced : No
Menu
00:00:00.000 : en:Глава 01
00:05:50.000 : en:Глава 02
00:11:40.000 : en:Глава 03
00:17:30.000 : en:Глава 04
00:23:20.000 : en:Глава 05
00:29:10.000 : en:Глава 06
00:35:00.000 : en:Глава 07
00:40:50.000 : en:Глава 08
00:46:40.000 : en:Глава 09
00:52:30.000 : en:Глава 10
00:58:20.000 : en:Глава 11
01:04:10.000 : en:Глава 12
01:10:00.000 : en:Глава 13
01:15:50.000 : en:Глава 14
01:21:40.000 : en:Глава 15
01:27:30.000 : en:Глава 16
01:33:20.000 : en:Глава 17
01:39:10.000 : en:Глава 18
01:45:00.000 : en:Глава 19
Скачать
Советуем установить VPN чтобы скрыть ваш IP-адрес
Сайт не распространяет и не хранит электронные версии произведений, а лишь предоставляет доступ к создаваемому пользователями каталогу ссылок на торрент-файлы, которые содержат только списки хеш-сумм
Как скачивать? (для скачивания .torrent файлов необходима регистрация)
[Профиль] [ЛС]
Показать сообщения:    

Текущее время: Сегодня 11:14

Часовой пояс: GMT + 4



Вы не можете начинать темы
Вы не можете отвечать на сообщения
Вы не можете редактировать свои сообщения
Вы не можете удалять свои сообщения
Вы не можете голосовать в опросах
Вы не можете прикреплять файлы к сообщениям
Вы не можете скачивать файлы