Скачать торрент Ренфилд / Renfield (2023) BDRip-AVC | D

 
Автор Сообщение

bazalt ®

Стаж: 13 лет

Сообщений: 1540

Пост Пост: #1 от 06-Фев-2024 22:09

[Цитировать]

Ренфилд / Renfield -Информация о фильме
Год выпуска: 2023
Страна: США
Студия: Skybound Entertainment, Universal Pictures-Жанр: комедия, ужасы, криминал, боевик
Перевод: Дублированный | Bravo Records Georgia / Movie Dubbing
Продолжительность: 01:33:34
Субтитры: Русские | Forced [Off.]-Режиссер: Крис МакКей-В ролях: Николас Холт, Николас Кейдж, Аквафина, Бен Шварц, Шохре Агдашлу, Брэндон Скотт Джонс, Адриан Мартинес, Камилль Чен, Бесс Роус, Дженна Кэнелл-О фильме:Новый Орлеан. Ренфилд, верный слуга графа Дракулы, подыскивает своему хозяину пропитание в группе психологической поддержки пострадавших от токсичных отношений: разыскивает их мучителей и скармливает вампиру. Внезапно он осознаёт, что сам стал жертвой нарцисса с клыками, и решает избавиться от его власти. А в это время неподкупная сотрудница полиции, пытаясь прижать местную банду наркоторговцев, оказывается под дулом пистолета одного из её главарей. На помощь девушке внезапно приходит оказавшийся рядом Ренфилд.- -Качество: BDRip-AVC
Формат: MKV
Видео: MPEG-4 AVC, 1024x424 (2,40:1), 23,976 fps, 1505 Kbit/s (0.145 bit/pixel)
Аудио: русский, AC3, 5.1, 48 kHz, 384 kbps | Bravo Records Georgia / Movie Dubbing
Навигация по главам: есть--

ОтчетМедиаИнфо

General
Unique ID : 253563629355996899827309210725489512115 (0xBEC29422F55662C6AB71191825770EB3)
Complete name : G:GFRenfield.2023.BDRip.AVC.Rip.by.HardwareMining..mkv
Format : Matroska
Format version : Version 4
File size : 1.24 GiB
Duration : 1 h 33 min
Overall bit rate : 1 892 kb/s
Frame rate : 23.976 FPS
Movie name : Renfield.2023.BDRip.AVC.Rip.by.HardwareMining.
Encoded date : 2023-06-30 09:38:14 UTC
Writing application : mkvmerge v6.8.0 ('Theme for Great Cities') 64bit built on Mar 2 2014 21:34:26
Writing library : libebml v1.3.0 + libmatroska v1.4.1
Cover : Yes
Attachments : cover.png
Video
ID : 3
Format : AVC
Format/Info : Advanced Video Codec
Format profile : High@L4.1
Format settings : CABAC / 10 Ref Frames
Format settings, CABAC : Yes
Format settings, Reference frames : 10 frames
Codec ID : V_MPEG4/ISO/AVC
Duration : 1 h 33 min
Bit rate : 1 505 kb/s
Width : 1 024 pixels
Height : 424 pixels
Display aspect ratio : 2.40:1
Frame rate mode : Constant
Frame rate : 23.976 FPS
Color space : YUV
Chroma subsampling : 4:2:0
Bit depth : 8 bits
Scan type : Progressive
Bits/(Pixel*Frame) : 0.145
Stream size : 984 MiB (78%)
Writing library : x264 core 130 r2273 b3065e6
Encoding settings : cabac=1 / ref=10 / deblock=1:-2:-1 / analyse=0x3:0x133 / me=umh / subme=10 / psy=1 / psy_rd=1.00:0.08 / mixed_ref=1 / me_range=32 / chroma_me=1 / trellis=2 / 8x8dct=1 / cqm=0 / deadzone=21,11 / fast_pskip=0 / chroma_qp_offset=-3 / threads=6 / lookahead_threads=1 / sliced_threads=0 / nr=0 / decimate=1 / interlaced=0 / bluray_compat=0 / constrained_intra=0 / bframes=10 / b_pyramid=2 / b_adapt=2 / b_bias=0 / direct=3 / weightb=1 / open_gop=0 / weightp=2 / keyint=240 / keyint_min=23 / scenecut=40 / intra_refresh=0 / rc=2pass / mbtree=0 / bitrate=1505 / ratetol=1.0 / qcomp=0.60 / qpmin=0 / qpmax=69 / qpstep=4 / cplxblur=20.0 / qblur=0.5 / ip_ratio=1.40 / pb_ratio=1.30 / aq=2:1.00
Language : English
Default : Yes
Forced : No
Color range : Limited
Color primaries : BT.709
Transfer characteristics : BT.709
Matrix coefficients : BT.709
Audio
ID : 1
Format : AC-3
Format/Info : Audio Coding 3
Commercial name : Dolby Digital
Codec ID : A_AC3
Duration : 1 h 33 min
Bit rate mode : Constant
Bit rate : 384 kb/s
Channel(s) : 6 channels
Channel layout : L R C LFE Ls Rs
Sampling rate : 48.0 kHz
Frame rate : 31.250 FPS (1536 SPF)
Compression mode : Lossy
Stream size : 257 MiB (20%)
Title : Dub | Bravo Records Georgia / Movie Dubbing
Language : Russian
Service kind : Complete Main
Default : Yes
Forced : No
Text
ID : 2
Format : UTF-8
Codec ID : S_TEXT/UTF8
Codec ID/Info : UTF-8 Plain Text
Title : Forced [Off.]
Language : Russian
Default : Yes
Forced : Yes
Menu
00:00:00.000 : en:Chapter 01
00:04:55.378 : en:Chapter 02
00:07:48.134 : en:Chapter 03
00:11:31.566 : en:Chapter 04
00:16:47.590 : en:Chapter 05
00:21:51.810 : en:Chapter 06
00:26:56.031 : en:Chapter 07
00:31:26.676 : en:Chapter 08
00:35:39.262 : en:Chapter 09
00:38:21.549 : en:Chapter 10
00:41:48.214 : en:Chapter 11
00:46:53.519 : en:Chapter 12
00:53:08.685 : en:Chapter 13
00:57:08.717 : en:Chapter 14
01:01:43.450 : en:Chapter 15
01:07:10.068 : en:Chapter 16
01:11:41.047 : en:Chapter 17
01:19:12.957 : en:Chapter 18
01:24:21.640 : en:Chapter 19
01:26:50.872 : en:Chapter 20

Скриншоты


Скачать
Советуем установить VPN чтобы скрыть ваш IP-адрес
Сайт не распространяет и не хранит электронные версии произведений, а лишь предоставляет доступ к создаваемому пользователями каталогу ссылок на торрент-файлы, которые содержат только списки хеш-сумм
Как скачивать? (для скачивания .torrent файлов необходима регистрация)
[Профиль] [ЛС]
Показать сообщения:    

Текущее время: Сегодня 20:21

Часовой пояс: GMT + 4



Вы не можете начинать темы
Вы не можете отвечать на сообщения
Вы не можете редактировать свои сообщения
Вы не можете удалять свои сообщения
Вы не можете голосовать в опросах
Вы не можете прикреплять файлы к сообщениям
Вы не можете скачивать файлы