Скачать торрент Иван Семенов: Большой поход (2023) WEB-DLRip 720p | KION

 
Автор Сообщение

bazalt ®

Стаж: 13 лет

Сообщений: 4975

Пост Пост: #1 от 06-Дек-2023 20:18

[Цитировать]


Информация о фильме
Название: Иван Семенов: Большой поход
Год выхода: 2023
Жанр: Комедия
Режиссер: Антон Богданов
В ролях: Роман Погорелов, Мария Шукшина, Марина Федункив, Никита Кологривый, Илья Иосифов, Софья Грузенко, Софья Мосина, Филат Новиков, Константин Костин, Александр Присмотров-Белов
О фильме: В жизни Ивана Семёнова — неутомимого фантазёра и неудержимого проказника — новая беда. Его школьная любовь — Танечка, чьей дружбы он добивался, уезжает учиться за границу. Иван, пытаясь остановить её отъезд, идёт на все возможные ухищрения: подкуп её родителей, предложение руки и сердца, и даже похищение! Но в результате добивается лишь одного — ему запрещают приближаться к ней. Теперь остановить переезд любимой Ивану поможет только чудо! И чудо это — Шаман, который исполняет любые желания.

Страна: Россия
Студия: Проспект Мира
Продолжительность: 01:23:10
Перевод: Не требуется | KION
Файл
Формат: MKV
Качество: WEB-DLRip 720p
Видео: MPEG-4 AVC, 1280x474, 3050 kbps, 25.000 fps
Аудио: Russian: 48 kHz, AC3, 2/0 (L,R) ch, ~ 192 kbps
Субтитры: Отсутствуют

Скриншоты


MI/x264

General
Unique ID : 183597648382157633797700322233065109777 (0x8A1F9EF196508AC0A2E4CB41D31B7911)
Complete name : Ivan.Semenov.Bolshoy.pohod.2023.WEB-DLRip.720p.mkv
Format : Matroska
Format version : Version 4
File size : 1.88 GiB
Duration : 1 h 23 min
Overall bit rate : 3 244 kb/s
Encoded date : UTC 2023-11-02 15:13:50
Writing application : mkvmerge v7.3.0 ('Nouages') 64bit built on Oct 22 2014 18:53:34
Writing library : libebml v1.3.0 + libmatroska v1.4.1
Video
ID : 1
Format : AVC
Format/Info : Advanced Video Codec
Format profile : High@L4.1
Format settings : CABAC / 12 Ref Frames
Format settings, CABAC : Yes
Format settings, Reference frames : 12 frames
Codec ID : V_MPEG4/ISO/AVC
Duration : 1 h 23 min
Bit rate : 3 050 kb/s
Width : 1 280 pixels
Height : 474 pixels
Display aspect ratio : 2.700
Frame rate mode : Constant
Frame rate : 25.000 FPS
Color space : YUV
Chroma subsampling : 4:2:0
Bit depth : 8 bits
Scan type : Progressive
Bits/(Pixel*Frame) : 0.201
Stream size : 1.77 GiB (94%)
Writing library : x264 core 164 r3099+55M 141af3f t_mod_New [(8 & 10)-bit@all X86_64]
Encoding settings : cabac=1 / ref=12 / deblock=1:-3:-2 / analyse=0x3:0x113 / me=umh / subme=11 / psy=1 / fade_compensate=0.00 / psy_rd=1.05:0.15 / mixed_ref=1 / me_range=32 / chroma_me=1 / trellis=2 / 8x8dct=1 / cqm=0 / deadzone=21,11 / fast_pskip=0 / chroma_qp_offset=-3 / threads=13 / lookahead_threads=2 / sliced_threads=0 / nr=0 / decimate=0 / interlaced=0 / bluray_compat=0 / constrained_intra=0 / fgo=0 / bframes=9 / b_pyramid=2 / b_adapt=2 / b_bias=0 / direct=1 / weightb=1 / open_gop=0 / weightp=2 / keyint=250 / keyint_min=25 / scenecut=40 / intra_refresh=0 / rc_lookahead=60 / rc=crf / mbtree=0 / crf=18.4000 / qcomp=0.60 / qpmin=0:0:0 / qpmax=69:69:69 / qpstep=4 / vbv_maxrate=50000 / vbv_bufsize=62500 / crf_max=0.0 / nal_hrd=none / filler=0 / ip_ratio=1.40 / pb_ratio=1.30 / aq=3:0.80 / aq-sensitivity=10.00 / aq-factor=1.00:1.00:1.00 / aq2=0 / aq3=0
Language : Russian
Default : Yes
Forced : No
Audio
ID : 2
Format : AC-3
Format/Info : Audio Coding 3
Commercial name : Dolby Digital
Codec ID : A_AC3
Duration : 1 h 23 min
Bit rate mode : Constant
Bit rate : 192 kb/s
Channel(s) : 2 channels
Channel layout : L R
Sampling rate : 48.0 kHz
Frame rate : 31.250 FPS (1536 SPF)
Compression mode : Lossy
Stream size : 114 MiB (6%)
Language : Russian
Service kind : Complete Main
Default : Yes
Forced : No-x264 [info]: frame I:1087 Avg QP:17.10 size: 90428
x264 [info]: frame P:34628 Avg QP:19.36 size: 30556
x264 [info]: frame B:89035 Avg QP:21.05 size: 8378
Скачать
Советуем установить VPN чтобы скрыть ваш IP-адрес
Сайт не распространяет и не хранит электронные версии произведений, а лишь предоставляет доступ к создаваемому пользователями каталогу ссылок на торрент-файлы, которые содержат только списки хеш-сумм
Как скачивать? (для скачивания .torrent файлов необходима регистрация)
[Профиль] [ЛС]
Показать сообщения:    

Текущее время: Сегодня 12:49

Часовой пояс: GMT + 4



Вы не можете начинать темы
Вы не можете отвечать на сообщения
Вы не можете редактировать свои сообщения
Вы не можете удалять свои сообщения
Вы не можете голосовать в опросах
Вы не можете прикреплять файлы к сообщениям
Вы не можете скачивать файлы