(Hard-Rock, Rock) Guns N` Roses - Discography 7 официальных альбомов и 3 сингла - 1987, FLAC (tracks), lossless

Ответить на тему
 
Автор Сообщение

admin ®

Пол:

Стаж: 9 лет 1 месяц

Сообщений: 825

Пост Пост: #1 от 25-Июл-2009 01:22

[Цитировать]

Guns N` Roses - Discography 7 официальных альбомов и 3 сингла
Страна: USA
Жанр: Hard-Rock, Rock
Год выпуска: 1987-2004
Формат: FLAC (tracks)
Битрейт аудио: lossless
О Guns `N Roses: Наиболее дискуссионная американская хэви-рок группа конца 80-х годов "Guns N' Roses" известна среди людей, которые отнюдь не интересуются музыкой, благодаря вызывающе эпатажному поведению музыкантов. Хотя, надо отдать должное их творчеству, от отсутствия музыкальных фанов "Guns N' Roses" тоже не страдают. Несмотря на длительное затишье в их деятельности последние годы, поклонники хранят группе верность и терпеливо ждут возвращения любимой команды.
История Guns N'Roses берет начало в малоизвестной группе Rose, в которой в начале 80-х играли вокалист W.Axl Rose и гитарист Izzy Stradlin. Эксл и Иззи знали друг друга еще со школьной скамьи.
По обявлению в газете The Recycler, Дафф нашел Слэша и барабанщика Steven Adler, с которыми основал группу Road Crew. Road Crew просуществовала в составе трио чуть больше месяца. Тем не менее, в марте 1985 года Дафф ушел в Guns N'Roses, а в июне перетащил туда Слэша и Стивена.
Произошло это следующим образом: имея немало связей в Сиэттле, Дафф предложил "ганзам" организовать несколько выступлений в клубах будущей "колыбели гранджа". Трейси Ганс и Роб Гарднер ехать отказались, и тогда Дафф предложил Акселю выступить на этих концертах со Слэшем и Стивеном. Эксл не имел ничего против, и так возник классический состав Guns N'Roses: Эксл Роуз (вокал, клавишные), Слэш (соло-гитара), Иззи Стрэдлин (ритм-гитара, вокал), Дафф МакКаган (бас), Стивен Адлер (ударные).
Трэклист:

1987 - Appetite for Destruction {MFSL 699}

1987 - Appetite for Destruction
Label: Geffen Records
Catalog#: 9 24148-2
Format: CD, Album
Released: 21 Jul 1987
Треклист:
1. Welcome To The Jungle (4:31)
2. It's So Easy (3:21)
3. Nightrain (4:26)
4. Out Ta Get Me (4:20)
5. Mr. Brownstone (3:46)
6. Paradise City (6:46)
7. My Michelle (3:39)
8. Think About You (3:50)
9. Sweet Child O' Mine (5:55)
10. You're Crazy (3:25)
11. Anything Goes (3:25)
12. Rocket Queen (6:13)

Отчет EAC

EAC extraction logfile from 9. September 2005, 19:21 for CD
Guns N' Roses / Appetite For Destruction
Used drive : PIONEER DVD-RW DVR-108 Adapter: 1 ID: 1
Read mode : Secure with NO C2, accurate stream, disable cache
Read offset correction : 48
Overread into Lead-In and Lead-Out : No
Used output format : Internal WAV Routines
44.100 Hz; 16 Bit; Stereo
Other options :
Fill up missing offset samples with silence : Yes
Delete leading and trailing silent blocks : No
Installed external ASPI interface
Track 1
Filename C:\Guns N' Roses - Appetite For Destruction [1987 {MFSL 699} FLAC]\01 - Welcome To The Jungle.wav
Pre-gap length 0:00:02.00
Peak level 100.0 %
Track quality 100.0 %
Test CRC 550F1C75
Copy CRC 550F1C75
Copy OK
Track 2
Filename C:\Guns N' Roses - Appetite For Destruction [1987 {MFSL 699} FLAC]\02 - It's So Easy.wav
Pre-gap length 0:00:01.66
Peak level 94.9 %
Track quality 100.0 %
Test CRC 61A5D8E8
Copy CRC 61A5D8E8
Copy OK
Track 3
Filename C:\Guns N' Roses - Appetite For Destruction [1987 {MFSL 699} FLAC]\03 - Nightrain.wav
Pre-gap length 0:00:02.06
Peak level 100.0 %
Track quality 100.0 %
Test CRC 8EEB8959
Copy CRC 8EEB8959
Copy OK
Track 4
Filename C:\Guns N' Roses - Appetite For Destruction [1987 {MFSL 699} FLAC]\04 - Out Ta Get Me.wav
Pre-gap length 0:00:02.17
Peak level 96.4 %
Track quality 100.0 %
Test CRC AA812B5D
Copy CRC AA812B5D
Copy OK
Track 5
Filename C:\Guns N' Roses - Appetite For Destruction [1987 {MFSL 699} FLAC]\05 - Mr. Brownstone.wav
Pre-gap length 0:00:02.50
Peak level 92.7 %
Track quality 99.9 %
Test CRC 6BA9BF25
Copy CRC 6BA9BF25
Copy OK
Track 6
Filename C:\Guns N' Roses - Appetite For Destruction [1987 {MFSL 699} FLAC]\06 - Paradise City.wav
Pre-gap length 0:00:02.81
Peak level 99.2 %
Track quality 100.0 %
Test CRC A22F60EB
Copy CRC A22F60EB
Copy OK
Track 7
Filename C:\Guns N' Roses - Appetite For Destruction [1987 {MFSL 699} FLAC]\07 - My Michelle.wav
Pre-gap length 0:00:02.82
Peak level 100.0 %
Track quality 99.9 %
Test CRC 6B4C6496
Copy CRC 6B4C6496
Copy OK
Track 8
Filename C:\Guns N' Roses - Appetite For Destruction [1987 {MFSL 699} FLAC]\08 - Think About You.wav
Pre-gap length 0:00:02.00
Peak level 98.2 %
Track quality 100.0 %
Test CRC ACE06009
Copy CRC ACE06009
Copy OK
Track 9
Filename C:\Guns N' Roses - Appetite For Destruction [1987 {MFSL 699} FLAC]\09 - Sweet Child O' Mine.wav
Pre-gap length 0:00:02.20
Peak level 100.0 %
Track quality 100.0 %
Test CRC EAF581AB
Copy CRC EAF581AB
Copy OK
Track 10
Filename C:\Guns N' Roses - Appetite For Destruction [1987 {MFSL 699} FLAC]\10 - You're Crazy.wav
Pre-gap length 0:00:02.13
Peak level 100.0 %
Track quality 100.0 %
Test CRC 3B6F44B7
Copy CRC 3B6F44B7
Copy OK
Track 11
Filename C:\Guns N' Roses - Appetite For Destruction [1987 {MFSL 699} FLAC]\11 - Anything Goes.wav
Pre-gap length 0:00:01.62
Peak level 95.1 %
Track quality 100.0 %
Test CRC ADA55B0E
Copy CRC ADA55B0E
Copy OK
Track 12
Filename C:\Guns N' Roses - Appetite For Destruction [1987 {MFSL 699} FLAC]\12 - Rocket Queen.wav
Pre-gap length 0:00:01.66
Peak level 100.0 %
Track quality 100.0 %
Test CRC E06E0234
Copy CRC E06E0234
Copy OK
No errors occured
End of status report

1987 - Live From The Jungle (Japanese EP)

1987 - Live From The Jungle
Label: Geffen Records Japan
Catalog#: 25XD-977
Format: 1988 Japanese EP.
Notes:Tracks 1-5 recorded in London, June 28th 1987.
Треклист:
1. It's So Easy (Live) (3:57)
2. Shadow Of Your Love (Live) (3:07)
3. Move To The City (Live) (3:46)
4. Knockin' On Heaven's Door (Live) (4:41)
5. Whole Lotta Rosie (Live) (4:32)
6. Sweet Child O' Mine (5:56)

Отчет EAC

EAC extraction logfile from 2. April 2007, 20:54 for CD
Guns N' Roses / Live From The Jungle
Used drive : SONY DVD-ROM DDU1615 Adapter: 1 ID: 1
Read mode : Secure with NO C2, accurate stream, disable cache
Read offset correction : 6
Overread into Lead-In and Lead-Out : No
Used output format : Internal WAV Routines
44.100 Hz; 16 Bit; Stereo
Other options :
Fill up missing offset samples with silence : Yes
Delete leading and trailing silent blocks : No
Installed external ASPI interface
Track 1
Filename F:\Guns N' Roses - Live From The Jungle (1987) [FLAC] {Japanese EP}\01 - It's So Easy (Live).wav
Pre-gap length 0:00:02.00
Peak level 94.2 %
Track quality 100.0 %
Test CRC C5B23DE0
Copy CRC C5B23DE0
Copy OK
Track 2
Filename F:\Guns N' Roses - Live From The Jungle (1987) [FLAC] {Japanese EP}\02 - Shadow Of Your Love (Live).wav
Pre-gap length 0:00:02.40
Peak level 72.4 %
Track quality 100.0 %
Test CRC E4EC6814
Copy CRC E4EC6814
Copy OK
Track 3
Filename F:\Guns N' Roses - Live From The Jungle (1987) [FLAC] {Japanese EP}\03 - Move To The City (Live).wav
Pre-gap length 0:00:01.53
Peak level 76.1 %
Track quality 100.0 %
Test CRC 82F68269
Copy CRC 82F68269
Copy OK
Track 4
Filename F:\Guns N' Roses - Live From The Jungle (1987) [FLAC] {Japanese EP}\04 - Knockin' On Heaven's Door (Live).wav
Pre-gap length 0:00:02.86
Peak level 91.7 %
Track quality 100.0 %
Test CRC 1A9EDA35
Copy CRC 1A9EDA35
Copy OK
Track 5
Filename F:\Guns N' Roses - Live From The Jungle (1987) [FLAC] {Japanese EP}\05 - Whole Lotta Rosie (Live).wav
Pre-gap length 0:00:01.57
Peak level 95.1 %
Track quality 100.0 %
Test CRC 9F56E76F
Copy CRC 9F56E76F
Copy OK
Track 6
Filename F:\Guns N' Roses - Live From The Jungle (1987) [FLAC] {Japanese EP}\06 - Sweet Child O' Mine.wav
Pre-gap length 0:00:03.22
Peak level 89.7 %
Track quality 100.0 %
Test CRC BF18EB16
Copy CRC BF18EB16
Copy OK
No errors occured
End of status report

1988 - G N' R Lies {MFSL}

1988 - G N' R Lies
Label: Geffen Records
Catalog#: 9 24198-2
Format: CD
Released: 1988
Треклист:
1. Reckless Life (3:22)
2. Nice Boys (3:02)
3. Move To The City (3:42)
4. Mama Kin (3:57)
5. Patience (5:56)
6. Used To Love Her (3:13)
7. You're Crazy (4:10)
8. One In A Million (6:11)

Отчет EAC

EAC extraction logfile from 2. September 2005, 21:10 for CD
Guns N' Roses / Lies
Used drive : IDE-DVD ROM 16x Adapter: 1 ID: 1
Read mode : Secure with NO C2, accurate stream, disable cache
Read offset correction : 709
Overread into Lead-In and Lead-Out : No
Used output format : Internal WAV Routines
44.100 Hz; 16 Bit; Stereo
Other options :
Fill up missing offset samples with silence : Yes
Delete leading and trailing silent blocks : No
Native Win32 interface for Win NT & 2000
Track 1
Filename C:\Documents and Settings\Owner\My Documents\My Music\eac to wave\01 - Reckless Life.wav
Pre-gap length 0:00:02.00
Peak level 96.8 %
Track quality 100.0 %
Test CRC DB55AD41
Copy CRC DB55AD41
Copy OK
Track 2
Filename C:\Documents and Settings\Owner\My Documents\My Music\eac to wave\02 - Nice Boys.wav
Peak level 100.0 %
Track quality 100.0 %
Test CRC 97FFC614
Copy CRC 97FFC614
Copy OK
Track 3
Filename C:\Documents and Settings\Owner\My Documents\My Music\eac to wave\03 - Move To The City.wav
Peak level 100.0 %
Track quality 100.0 %
Test CRC 592AF4CD
Copy CRC 592AF4CD
Copy OK
Track 4
Filename C:\Documents and Settings\Owner\My Documents\My Music\eac to wave\04 - Mama Kin.wav
Peak level 98.3 %
Track quality 100.0 %
Test CRC B6962FF0
Copy CRC B6962FF0
Copy OK
Track 5
Filename C:\Documents and Settings\Owner\My Documents\My Music\eac to wave\05 - Patience.wav
Pre-gap length 0:00:01.62
Peak level 100.0 %
Track quality 99.9 %
Test CRC 401CDAAA
Copy CRC 401CDAAA
Copy OK
Track 6
Filename C:\Documents and Settings\Owner\My Documents\My Music\eac to wave\06 - Used To Love Her.wav
Pre-gap length 0:00:01.50
Peak level 100.0 %
Track quality 100.0 %
Test CRC 812CA543
Copy CRC 812CA543
Copy OK
Track 7
Filename C:\Documents and Settings\Owner\My Documents\My Music\eac to wave\07 - You're Crazy.wav
Pre-gap length 0:00:01.13
Peak level 96.2 %
Track quality 100.0 %
Test CRC 79D13042
Copy CRC 79D13042
Copy OK
Track 8
Filename C:\Documents and Settings\Owner\My Documents\My Music\eac to wave\08 - One In A Million.wav
Pre-gap length 0:00:00.25
Peak level 98.8 %
Track quality 99.9 %
Test CRC 8DADDF0A
Copy CRC 8DADDF0A
Copy OK
No errors occured
End of status report

1991 - Live And Let Die (German Single)

1991 - Live And Let Die (German Single)
Label: Geffen Records
Catalog#: GED 21692
Format: CD, Maxi-Single
Released: 1991
Треклист:
1. Live And Let Die (LP Version) (3:03)
2. Live And Let Die (Live) (3:58)
3. Shadow Of Your Love (Live) (2:48)

Отчет EAC

EAC extraction logfile from 8. March 1999, 0:10 for CD
Guns N' Roses / Live And Let Die (Maxi Single)
Used drive : LITE-ON CD-ROM LTN-527T Adapter: 0 ID: 1
Read mode : Secure with NO C2, accurate stream, disable cache
Read offset correction : 12
Overread into Lead-In and Lead-Out : No
Used output format : C:\Archivos de programa\FLAC\flac.exe (User Defined Encoder)
128 kBit/s
Additional command line options : -8 -V -T "ARTIST=%a" -T "TITLE=%t" -T "ALBUM=%g" -T "DATE=%y" -T "TRACKNUMBER=%n" -T "GENRE=%m" -T "COMMENT=EAC Flac 1.1.4 -8" %s
Other options :
Fill up missing offset samples with silence : Yes
Delete leading and trailing silent blocks : No
Installed external ASPI interface
Track 1
Filename C:\My Music\Flac Albums\Uploads\Guns N' Roses - Live And Let Die (1991) (FLAC] (German Single)\01 - Live And Let Die (Lp Version).wav
Pre-gap length 0:00:02.42
Peak level 98.3 %
Track quality 100.0 %
Test CRC 7C9D5266
Copy CRC 7C9D5266
Copy OK
Track 2
Filename C:\My Music\Flac Albums\Uploads\Guns N' Roses - Live And Let Die (1991) (FLAC] (German Single)\02 - Live And Let Die (Live).wav
Pre-gap length 0:00:01.42
Peak level 100.0 %
Track quality 100.0 %
Test CRC FCE4619D
Copy CRC FCE4619D
Copy OK
Track 3
Filename C:\My Music\Flac Albums\Uploads\Guns N' Roses - Live And Let Die (1991) (FLAC] (German Single)\03 - Shadow Of Your Love (Live).wav
Pre-gap length 0:00:02.26
Peak level 100.0 %
Track quality 100.0 %
Test CRC 40D95FAC
Copy CRC 40D95FAC
Copy OK
No errors occured
End of status report

1991 - Use Your Illusion I {MFSL 711}

1991 - Use Your Illusion I
Label: Geffen Records, Geffen Records
Catalog#: GED 24415, GEFD 24415
Format: CD, Album
Released: 1991
Треклист:
1. Right Next Door To Hell (3:02)
2. Dust N' Bones (4:58)
3. Live And Let Die (3:04)
4. Don't Cry (Original) (4:44)
5. Perfect Crime (2:23)
6. You Ain't The First (2:36)
7. Bad Obsession (5:28)
8. Back Off Bitch (5:03)
9. Double Talkin' Jive (3:23)
10. November Rain (8:57)
11. The Garden (5:22)
12. Garden Of Eden (2:41)
13. Don't Damn Me (5:18)
14. Bad Apples (4:28)
15. Dead Horse (4:17)
16. Coma (10:13)

Отчет EAC

EAC extraction logfile from 9. September 2005, 20:30 for CD
Guns N' Roses / Use Your Illusion I
Used drive : PIONEER DVD-RW DVR-108 Adapter: 1 ID: 1
Read mode : Secure with NO C2, accurate stream, disable cache
Read offset correction : 48
Overread into Lead-In and Lead-Out : No
Used output format : Internal WAV Routines
44.100 Hz; 16 Bit; Stereo
Other options :
Fill up missing offset samples with silence : Yes
Delete leading and trailing silent blocks : No
Installed external ASPI interface
Track 1
Filename C:\Guns N' Roses - Use Your Illusion I [1991 {MFSL 711} FLAC]\01 - Right Next Door To Hell.wav
Pre-gap length 0:00:02.00
Peak level 89.3 %
Track quality 100.0 %
Test CRC A1EC67D5
Copy CRC A1EC67D5
Copy OK
Track 2
Filename C:\Guns N' Roses - Use Your Illusion I [1991 {MFSL 711} FLAC]\02 - Dust N' Bones.wav
Pre-gap length 0:00:01.00
Peak level 97.1 %
Track quality 100.0 %
Test CRC ABEEC11A
Copy CRC ABEEC11A
Copy OK
Track 3
Filename C:\Guns N' Roses - Use Your Illusion I [1991 {MFSL 711} FLAC]\03 - Live And Let Die.wav
Pre-gap length 0:00:02.00
Peak level 96.7 %
Track quality 100.0 %
Test CRC E9FB14AC
Copy CRC E9FB14AC
Copy OK
Track 4
Filename C:\Guns N' Roses - Use Your Illusion I [1991 {MFSL 711} FLAC]\04 - Don't Cry [Original].wav
Pre-gap length 0:00:01.00
Peak level 98.2 %
Track quality 100.0 %
Test CRC 68A28EFA
Copy CRC 68A28EFA
Copy OK
Track 5
Filename C:\Guns N' Roses - Use Your Illusion I [1991 {MFSL 711} FLAC]\05 - Perfect Crime.wav
Pre-gap length 0:00:01.20
Peak level 88.1 %
Track quality 100.0 %
Test CRC 72736DCC
Copy CRC 72736DCC
Copy OK
Track 6
Filename C:\Guns N' Roses - Use Your Illusion I [1991 {MFSL 711} FLAC]\06 - You Ain't The First.wav
Pre-gap length 0:00:01.00
Peak level 77.5 %
Track quality 99.9 %
Test CRC A8AEED59
Copy CRC A8AEED59
Copy OK
Track 7
Filename C:\Guns N' Roses - Use Your Illusion I [1991 {MFSL 711} FLAC]\07 - Bad Obsession.wav
Pre-gap length 0:00:01.00
Peak level 96.9 %
Track quality 100.0 %
Test CRC ECFC0006
Copy CRC ECFC0006
Copy OK
Track 8
Filename C:\Guns N' Roses - Use Your Illusion I [1991 {MFSL 711} FLAC]\08 - Back Off Bitch.wav
Pre-gap length 0:00:02.00
Peak level 97.3 %
Track quality 100.0 %
Test CRC EB6719D1
Copy CRC EB6719D1
Copy OK
Track 9
Filename C:\Guns N' Roses - Use Your Illusion I [1991 {MFSL 711} FLAC]\09 - Double Talkin' Jive.wav
Pre-gap length 0:00:01.00
Peak level 94.9 %
Track quality 100.0 %
Test CRC 7BF57941
Copy CRC 7BF57941
Copy OK
Track 10
Filename C:\Guns N' Roses - Use Your Illusion I [1991 {MFSL 711} FLAC]\10 - November Rain.wav
Pre-gap length 0:00:01.98
Peak level 98.1 %
Track quality 100.0 %
Test CRC 2249FA90
Copy CRC 2249FA90
Copy OK
Track 11
Filename C:\Guns N' Roses - Use Your Illusion I [1991 {MFSL 711} FLAC]\11 - The Garden.wav
Pre-gap length 0:00:01.98
Peak level 92.0 %
Track quality 100.0 %
Test CRC 7D3F600D
Copy CRC 7D3F600D
Copy OK
Track 12
Filename C:\Guns N' Roses - Use Your Illusion I [1991 {MFSL 711} FLAC]\12 - Garden Of Eden.wav
Pre-gap length 0:00:03.00
Peak level 98.5 %
Track quality 100.0 %
Test CRC 8E5C18E7
Copy CRC 8E5C18E7
Copy OK
Track 13
Filename C:\Guns N' Roses - Use Your Illusion I [1991 {MFSL 711} FLAC]\13 - Don't Damn Me.wav
Pre-gap length 0:00:01.00
Peak level 98.9 %
Track quality 100.0 %
Test CRC FA6463B8
Copy CRC FA6463B8
Copy OK
Track 14
Filename C:\Guns N' Roses - Use Your Illusion I [1991 {MFSL 711} FLAC]\14 - Bad Apples.wav
Pre-gap length 0:00:01.00
Peak level 97.7 %
Track quality 100.0 %
Test CRC B4FFC9BC
Copy CRC B4FFC9BC
Copy OK
Track 15
Filename C:\Guns N' Roses - Use Your Illusion I [1991 {MFSL 711} FLAC]\15 - Dead Horse.wav
Peak level 98.2 %
Track quality 100.0 %
Test CRC 0EACC2E6
Copy CRC 0EACC2E6
Copy OK
Track 16
Filename C:\Guns N' Roses - Use Your Illusion I [1991 {MFSL 711} FLAC]\16 - Coma.wav
Peak level 98.1 %
Track quality 99.9 %
Test CRC B5DEEB3C
Copy CRC B5DEEB3C
Copy OK
No errors occured
End of status report

1991 - Use Your Illusion II {MFSL 712}

1991 - Use Your Illusion II
Label: Geffen Records, Geffen Records
Catalog#: GED 24420, GEFD 24420
Format: CD, Album
Released: 1991
Треклист:
1. Civil War (7:42)
2. 14 Years (4:21)
3. Yesterdays (3:16)
4. Knockin' On Heaven's Door (5:36)
5. Get In The Ring (5:41)
6. Shotgun Blues (3:23)
7. Breakdown (7:04)
8. Pretty Tied Up (4:47)
9. Locomotive (8:42)
10. So Fine (4:06)
11. Estranged (9:23)
12. You Could Be Mine (5:43)
13. Don't Cry (Alt. Lyrics) (4:44)
14. My World (1:23)

Отчет EAC

EAC extraction logfile from 9. September 2005, 21:17 for CD
Guns N' Roses / Use Your Illusion II
Used drive : PIONEER DVD-RW DVR-108 Adapter: 1 ID: 1
Read mode : Secure with NO C2, accurate stream, disable cache
Read offset correction : 48
Overread into Lead-In and Lead-Out : No
Used output format : Internal WAV Routines
44.100 Hz; 16 Bit; Stereo
Other options :
Fill up missing offset samples with silence : Yes
Delete leading and trailing silent blocks : No
Installed external ASPI interface
Track 1
Filename C:\Guns N' Roses - Use Your Illusion II [1991 {MFSL 712} FLAC]\01 - Civil War.wav
Pre-gap length 0:00:02.00
Peak level 91.3 %
Track quality 100.0 %
Test CRC 77B003A6
Copy CRC 77B003A6
Copy OK
Track 2
Filename C:\Guns N' Roses - Use Your Illusion II [1991 {MFSL 712} FLAC]\02 - 14 Years.wav
Pre-gap length 0:00:02.00
Peak level 91.2 %
Track quality 100.0 %
Test CRC 3EC4CE78
Copy CRC 3EC4CE78
Copy OK
Track 3
Filename C:\Guns N' Roses - Use Your Illusion II [1991 {MFSL 712} FLAC]\03 - Yesterdays.wav
Pre-gap length 0:00:01.00
Peak level 86.3 %
Track quality 100.0 %
Test CRC 46D273B8
Copy CRC 46D273B8
Copy OK
Track 4
Filename C:\Guns N' Roses - Use Your Illusion II [1991 {MFSL 712} FLAC]\04 - Knockin' On Heaven's Door.wav
Pre-gap length 0:00:02.00
Peak level 86.8 %
Track quality 100.0 %
Test CRC 76811523
Copy CRC 76811523
Copy OK
Track 5
Filename C:\Guns N' Roses - Use Your Illusion II [1991 {MFSL 712} FLAC]\05 - Get In The Ring.wav
Pre-gap length 0:00:00.98
Peak level 86.1 %
Track quality 100.0 %
Test CRC 089CD280
Copy CRC 089CD280
Copy OK
Track 6
Filename C:\Guns N' Roses - Use Your Illusion II [1991 {MFSL 712} FLAC]\06 - Shotgun Blues.wav
Pre-gap length 0:00:01.00
Peak level 78.6 %
Track quality 100.0 %
Test CRC 9A66F69C
Copy CRC 9A66F69C
Copy OK
Track 7
Filename C:\Guns N' Roses - Use Your Illusion II [1991 {MFSL 712} FLAC]\07 - Breakdown.wav
Pre-gap length 0:00:01.50
Peak level 88.9 %
Track quality 100.0 %
Test CRC 3EFB9F12
Copy CRC 3EFB9F12
Copy OK
Track 8
Filename C:\Guns N' Roses - Use Your Illusion II [1991 {MFSL 712} FLAC]\08 - Pretty Tied Up.wav
Pre-gap length 0:00:01.66
Peak level 97.6 %
Track quality 100.0 %
Test CRC C891FD18
Copy CRC C891FD18
Copy OK
Track 9
Filename C:\Guns N' Roses - Use Your Illusion II [1991 {MFSL 712} FLAC]\09 - Locomotive.wav
Pre-gap length 0:00:00.97
Peak level 89.1 %
Track quality 100.0 %
Test CRC 385E324B
Copy CRC 385E324B
Copy OK
Track 10
Filename C:\Guns N' Roses - Use Your Illusion II [1991 {MFSL 712} FLAC]\10 - So Fine.wav
Pre-gap length 0:00:02.00
Peak level 89.3 %
Track quality 100.0 %
Test CRC FE31E9CA
Copy CRC FE31E9CA
Copy OK
Track 11
Filename C:\Guns N' Roses - Use Your Illusion II [1991 {MFSL 712} FLAC]\11 - Estranged.wav
Pre-gap length 0:00:01.32
Peak level 100.0 %
Track quality 100.0 %
Test CRC 43D661B7
Copy CRC 43D661B7
Copy OK
Track 12
Filename C:\Guns N' Roses - Use Your Illusion II [1991 {MFSL 712} FLAC]\12 - You Could Be Mine.wav
Pre-gap length 0:00:02.00
Peak level 85.4 %
Track quality 100.0 %
Test CRC 3EE2DA36
Copy CRC 3EE2DA36
Copy OK
Track 13
Filename C:\Guns N' Roses - Use Your Illusion II [1991 {MFSL 712} FLAC]\13 - Don't Cry [Alt. Lyrics].wav
Pre-gap length 0:00:01.66
Peak level 100.0 %
Track quality 100.0 %
Test CRC 840CBF24
Copy CRC 840CBF24
Copy OK
Track 14
Filename C:\Guns N' Roses - Use Your Illusion II [1991 {MFSL 712} FLAC]\14 - My World.wav
Pre-gap length 0:00:01.49
Peak level 98.6 %
Track quality 100.0 %
Test CRC D98AD95D
Copy CRC D98AD95D
Copy OK
No errors occured
End of status report

1992 - Yesterdays (German single)

1992 - Yesterdays (German single)
Label: Geffen Records
Catalog#: GED 21770
Format: CD, Maxi-Single
Released: 1992
Треклист:
1. Yesterdays (LP Version) (3:15)
2. November Rain (LP Version) (8:57)
3. Yesterdays (Live In Las Vegas) (4:11)
4. Knockin' On Heaven's Door (Live At The Marquee) (4:39)
Notes:
• Tracks 1-2 mixed in (Ou)R Sound.
• Track 3 recorded live in Las Vegas, January 25 1992.
• Track 4 recorded live at The Marquee, London, June 28 1987.
• Original versions of 'Yesterdays' and 'Knockin' On Heaven's Door' from the album 'Use Your Illusion II'.
• 'November Rain' from the album 'Use Your Illusion I'.

Отчет EAC

EAC extraction logfile from 7. March 1999, 23:10 for CD
Guns N' Roses / Yesterdays (Single)
Used drive : LITE-ON CD-ROM LTN-527T Adapter: 0 ID: 1
Read mode : Secure with NO C2, accurate stream, disable cache
Read offset correction : 12
Overread into Lead-In and Lead-Out : No
Used output format : C:\Archivos de programa\FLAC\flac.exe (User Defined Encoder)
128 kBit/s
Additional command line options : -8 -V -T "ARTIST=%a" -T "TITLE=%t" -T "ALBUM=%g" -T "DATE=%y" -T "TRACKNUMBER=%n" -T "GENRE=%m" -T "COMMENT=EAC Flac 1.1.4 -8" %s
Other options :
Fill up missing offset samples with silence : Yes
Delete leading and trailing silent blocks : No
Installed external ASPI interface
Track 1
Filename C:\My Music\Flac Albums\Uploads\Guns N' Roses - Yesterdays (1992) [FLAC] (Single)\01 - Yesterdays.wav
Pre-gap length 0:00:02.44
Peak level 100.0 %
Track quality 100.0 %
Test CRC E300451B
Copy CRC E300451B
Copy OK
Track 2
Filename C:\My Music\Flac Albums\Uploads\Guns N' Roses - Yesterdays (1992) [FLAC] (Single)\02 - November Rain.wav
Pre-gap length 0:00:00.57
Peak level 100.0 %
Track quality 100.0 %
Test CRC 14EFE61C
Copy CRC 14EFE61C
Copy OK
Track 3
Filename C:\My Music\Flac Albums\Uploads\Guns N' Roses - Yesterdays (1992) [FLAC] (Single)\03 - Yesterdays (Live In Las Vegas).wav
Pre-gap length 0:00:01.20
Peak level 100.0 %
Track quality 100.0 %
Test CRC 86DAA599
Copy CRC 86DAA599
Copy OK
Track 4
Filename C:\My Music\Flac Albums\Uploads\Guns N' Roses - Yesterdays (1992) [FLAC] (Single)\04 - Knockin' On Heaven's Door (Live At The Marquee).wav
Pre-gap length 0:00:00.33
Peak level 100.0 %
Track quality 100.0 %
Test CRC C383A19B
Copy CRC C383A19B
Copy OK
No errors occured
End of status report

1993 - The Spaghetti Incident?

1993 - The Spaghetti Incident?
Label: Geffen Records
Catalog#: GEFSD 24617
Format: CD, Album
Released: 1993
Треклист:
1. Since I Don't Have You (4:19)
2. New Rose (2:38)
3. Down On The Farm (3:28)
4. Human Being (6:48)
5. Raw Power (3:11)
6. Ain't It Fun (5:05)
7. Buick Makane (Big Dumb Sex) (2:37)
8. Hair Of The Dog (3:54)
9. Attitude (1:27)
10. Black Leather (4:08)
11. You Can't Put Your Arms Around A Memory (3:35)
12. I Don't Care About You (4:51)

Отчет EAC

EAC extraction logfile from 31. May 2005, 14:58 for CD
Guns N' Roses / The Spaghetti Incident?
Used drive : HL-DT-STDVD-ROM GDR8161B Adapter: 2 ID: 0
Read mode : Secure with NO C2, accurate stream, disable cache
Read offset correction : 0
Overread into Lead-In and Lead-Out : No
Used output format : Internal WAV Routines
44.100 Hz; 16 Bit; Stereo
Other options :
Fill up missing offset samples with silence : Yes
Delete leading and trailing silent blocks : No
Native Win32 interface for Win NT & 2000
Track 1
Filename D:\TEMP - Music EAC Ripped\01 - Since I Don't Have You.wav
Peak level 100.0 %
Track quality 100.0 %
Test CRC 1003835A
Copy CRC 1003835A
Copy OK
Track 2
Filename D:\TEMP - Music EAC Ripped\02 - New Rose.wav
Peak level 100.0 %
Track quality 100.0 %
Test CRC FE72C6B5
Copy CRC FE72C6B5
Copy OK
Track 3
Filename D:\TEMP - Music EAC Ripped\03 - Down On The Farm.wav
Peak level 100.0 %
Track quality 100.0 %
Test CRC 43D3AF4E
Copy CRC 43D3AF4E
Copy OK
Track 4
Filename D:\TEMP - Music EAC Ripped\04 - Human Being.wav
Peak level 100.0 %
Track quality 100.0 %
Test CRC 17AE39F8
Copy CRC 17AE39F8
Copy OK
Track 5
Filename D:\TEMP - Music EAC Ripped\05 - Raw Power.wav
Peak level 100.0 %
Track quality 100.0 %
Test CRC E4899C91
Copy CRC E4899C91
Copy OK
Track 6
Filename D:\TEMP - Music EAC Ripped\06 - Ain't It Fun.wav
Peak level 100.0 %
Track quality 100.0 %
Test CRC 6272C09E
Copy CRC 6272C09E
Copy OK
Track 7
Filename D:\TEMP - Music EAC Ripped\07 - Buick Makane.wav
Peak level 100.0 %
Track quality 100.0 %
Test CRC F1F58388
Copy CRC F1F58388
Copy OK
Track 8
Filename D:\TEMP - Music EAC Ripped\08 - Hair Of The Dog.wav
Peak level 100.0 %
Track quality 100.0 %
Test CRC 9B33E6C1
Copy CRC 9B33E6C1
Copy OK
Track 9
Filename D:\TEMP - Music EAC Ripped\09 - Attitude.wav
Peak level 100.0 %
Track quality 99.8 %
Test CRC 5214EFAC
Copy CRC 5214EFAC
Copy OK
Track 10
Filename D:\TEMP - Music EAC Ripped\10 - Black Leather.wav
Peak level 100.0 %
Track quality 100.0 %
Test CRC 5E60E112
Copy CRC 5E60E112
Copy OK
Track 11
Filename D:\TEMP - Music EAC Ripped\11 - You Can't Put Your Arms Around A Memory.wav
Peak level 100.0 %
Track quality 100.0 %
Test CRC AEBAF96B
Copy CRC AEBAF96B
Copy OK
Track 12
Filename D:\TEMP - Music EAC Ripped\12 - I Don't Care About You.wav
Peak level 100.0 %
Track quality 100.0 %
Test CRC 35765336
Copy CRC 35765336
Copy OK
No errors occured
End of status report

1999 - Live Era '87-'93

1999 - Live Era '87-'93
Label: Geffen Records
Catalog#: 069490514 2
Format: 2 x CD
Released: 30 Nov 1999
Треклист:
CD1:
1. Nightrain (5:18)
2. Mr. Brownstone (5:42)
3. It's So Easy (3:28)
4. Welcome To The Jungle (5:08)
5. Dust N' Bones (5:05)
6. My Michelle (3:53)
7. You're Crazy (4:45)
8. Used To Love Her (4:17)
9. Patience (6:42)
10. It's Alright (3:07)
11. November Rain (12:29)
CD2:
1. Out Ta Get Me (4:33)
2. Pretty Tied Up (5:25)
3. Yesterdays (3:52)
4. Move To The City (8:00)
5. You Could Be Mine (6:02)
6. Rocket Queen (8:27)
7. Sweet Child O' Mine (7:25)
8. Knockin' On Heaven's Door (7:27)
9. Don't Cry (4:44)
10. Estranged (9:52)
11. Paradise City (7:21)

Отчет EAC CD1

EAC extraction logfile from 5. September 2007, 22:26 for CD
Guns N' Roses / Live Era '87-'93 (Disc 1)
Used drive : SONY DVD-ROM DDU1615 Adapter: 1 ID: 1
Read mode : Secure with NO C2, accurate stream, disable cache
Read offset correction : 6
Overread into Lead-In and Lead-Out : No
Used output format : Internal WAV Routines
44.100 Hz; 16 Bit; Stereo
Other options :
Fill up missing offset samples with silence : Yes
Delete leading and trailing silent blocks : No
Installed external ASPI interface
Track 1
Filename F:\Guns N' Roses - Live Era '87-'93 (1999) [FLAC] {2 CD Japan Pressing}\Disc 1 of 2\01 - Nightrain.wav
Pre-gap length 0:00:02.00
Peak level 100.0 %
Track quality 99.9 %
Test CRC 1349B634
Copy CRC 1349B634
Copy OK
Track 2
Filename F:\Guns N' Roses - Live Era '87-'93 (1999) [FLAC] {2 CD Japan Pressing}\Disc 1 of 2\02 - Mr. Brownstone.wav
Peak level 100.0 %
Track quality 100.0 %
Test CRC 5F86C151
Copy CRC 5F86C151
Copy OK
Track 3
Filename F:\Guns N' Roses - Live Era '87-'93 (1999) [FLAC] {2 CD Japan Pressing}\Disc 1 of 2\03 - It's So Easy.wav
Peak level 100.0 %
Track quality 99.9 %
Test CRC 3C93492B
Copy CRC 3C93492B
Copy OK
Track 4
Filename F:\Guns N' Roses - Live Era '87-'93 (1999) [FLAC] {2 CD Japan Pressing}\Disc 1 of 2\04 - Welcome To The Jungle.wav
Peak level 100.0 %
Track quality 100.0 %
Test CRC 793C0A32
Copy CRC 793C0A32
Copy OK
Track 5
Filename F:\Guns N' Roses - Live Era '87-'93 (1999) [FLAC] {2 CD Japan Pressing}\Disc 1 of 2\05 - Dust N' Bones.wav
Peak level 100.0 %
Track quality 100.0 %
Test CRC 20961754
Copy CRC 20961754
Copy OK
Track 6
Filename F:\Guns N' Roses - Live Era '87-'93 (1999) [FLAC] {2 CD Japan Pressing}\Disc 1 of 2\06 - My Michelle.wav
Peak level 100.0 %
Track quality 100.0 %
Test CRC E97C830E
Copy CRC E97C830E
Copy OK
Track 7
Filename F:\Guns N' Roses - Live Era '87-'93 (1999) [FLAC] {2 CD Japan Pressing}\Disc 1 of 2\07 - You're Crazy.wav
Peak level 100.0 %
Track quality 100.0 %
Test CRC 1A1AFFFE
Copy CRC 1A1AFFFE
Copy OK
Track 8
Filename F:\Guns N' Roses - Live Era '87-'93 (1999) [FLAC] {2 CD Japan Pressing}\Disc 1 of 2\08 - Used To Love Her.wav
Peak level 100.0 %
Track quality 99.9 %
Test CRC 7E057EC9
Copy CRC 7E057EC9
Copy OK
Track 9
Filename F:\Guns N' Roses - Live Era '87-'93 (1999) [FLAC] {2 CD Japan Pressing}\Disc 1 of 2\09 - Patience.wav
Peak level 100.0 %
Track quality 100.0 %
Test CRC BF588402
Copy CRC BF588402
Copy OK
Track 10
Filename F:\Guns N' Roses - Live Era '87-'93 (1999) [FLAC] {2 CD Japan Pressing}\Disc 1 of 2\10 - It's Alright.wav
Peak level 100.0 %
Track quality 100.0 %
Test CRC 67FC5610
Copy CRC 67FC5610
Copy OK
Track 11
Filename F:\Guns N' Roses - Live Era '87-'93 (1999) [FLAC] {2 CD Japan Pressing}\Disc 1 of 2\11 - November Rain.wav
Peak level 100.0 %
Track quality 100.0 %
Test CRC 4BD7825F
Copy CRC 4BD7825F
Copy OK
Track 12
Filename F:\Guns N' Roses - Live Era '87-'93 (1999) [FLAC] {2 CD Japan Pressing}\Disc 1 of 2\12 - Coma (Japan Bonus Track).wav
Pre-gap length 0:00:02.65
Peak level 100.0 %
Track quality 100.0 %
Test CRC A16A3FC6
Copy CRC A16A3FC6
Copy OK
No errors occured
End of status report

Отчет EAC CD1

EAC extraction logfile from 5. September 2007, 22:49 for CD
Guns N' Roses / Live Era '87-'93 (Disc 2)
Used drive : SONY DVD-ROM DDU1615 Adapter: 1 ID: 1
Read mode : Secure with NO C2, accurate stream, disable cache
Read offset correction : 6
Overread into Lead-In and Lead-Out : No
Used output format : Internal WAV Routines
44.100 Hz; 16 Bit; Stereo
Other options :
Fill up missing offset samples with silence : Yes
Delete leading and trailing silent blocks : No
Installed external ASPI interface
Track 1
Filename F:\Guns N' Roses - Live Era '87-'93 (1999) [FLAC] {2 CD Japan Pressing}\Disc 2 of 2\01 - Out Ta Get Me.wav
Pre-gap length 0:00:02.00
Peak level 100.0 %
Track quality 99.9 %
Test CRC 58EB334D
Copy CRC 58EB334D
Copy OK
Track 2
Filename F:\Guns N' Roses - Live Era '87-'93 (1999) [FLAC] {2 CD Japan Pressing}\Disc 2 of 2\02 - Pretty Tied Up.wav
Peak level 100.0 %
Track quality 100.0 %
Test CRC 2B3AC5AB
Copy CRC 2B3AC5AB
Copy OK
Track 3
Filename F:\Guns N' Roses - Live Era '87-'93 (1999) [FLAC] {2 CD Japan Pressing}\Disc 2 of 2\03 - Yesterdays.wav
Peak level 100.0 %
Track quality 100.0 %
Test CRC 74E7B58C
Copy CRC 74E7B58C
Copy OK
Track 4
Filename F:\Guns N' Roses - Live Era '87-'93 (1999) [FLAC] {2 CD Japan Pressing}\Disc 2 of 2\04 - Move To The City.wav
Peak level 100.0 %
Track quality 100.0 %
Test CRC 25148A05
Copy CRC 25148A05
Copy OK
Track 5
Filename F:\Guns N' Roses - Live Era '87-'93 (1999) [FLAC] {2 CD Japan Pressing}\Disc 2 of 2\05 - You Could Be Mine.wav
Peak level 100.0 %
Track quality 99.9 %
Test CRC CD2998CD
Copy CRC CD2998CD
Copy OK
Track 6
Filename F:\Guns N' Roses - Live Era '87-'93 (1999) [FLAC] {2 CD Japan Pressing}\Disc 2 of 2\06 - Rocket Queen.wav
Peak level 100.0 %
Track quality 100.0 %
Test CRC 27F1F5D1
Copy CRC 27F1F5D1
Copy OK
Track 7
Filename F:\Guns N' Roses - Live Era '87-'93 (1999) [FLAC] {2 CD Japan Pressing}\Disc 2 of 2\07 - Sweet Child O' Mine.wav
Peak level 100.0 %
Track quality 100.0 %
Test CRC 087D8136
Copy CRC 087D8136
Copy OK
Track 8
Filename F:\Guns N' Roses - Live Era '87-'93 (1999) [FLAC] {2 CD Japan Pressing}\Disc 2 of 2\08 - Knockin' On Heaven's Door.wav
Peak level 100.0 %
Track quality 100.0 %
Test CRC A6EA3FFC
Copy CRC A6EA3FFC
Copy OK
Track 9
Filename F:\Guns N' Roses - Live Era '87-'93 (1999) [FLAC] {2 CD Japan Pressing}\Disc 2 of 2\09 - Don't Cry.wav
Peak level 100.0 %
Track quality 100.0 %
Test CRC C57150D9
Copy CRC C57150D9
Copy OK
Track 10
Filename F:\Guns N' Roses - Live Era '87-'93 (1999) [FLAC] {2 CD Japan Pressing}\Disc 2 of 2\10 - Estranged.wav
Peak level 100.0 %
Track quality 100.0 %
Test CRC 1727AE83
Copy CRC 1727AE83
Copy OK
Track 11
Filename F:\Guns N' Roses - Live Era '87-'93 (1999) [FLAC] {2 CD Japan Pressing}\Disc 2 of 2\11 - Paradise City.wav
Peak level 100.0 %
Track quality 100.0 %
Test CRC 554FC57D
Copy CRC 554FC57D
Copy OK
No errors occured
End of status report

2004 - Greatest Hits

2004 - Greatest Hits
Label: Geffen Records
Catalog#: B0001714-02
Format: CD
Released: 23 Mar 2004
Треклист:
1. Welcome To The Jungle (4:31)
2. Sweet Child O' Mine (5:55)
3. Patience (5:56)
4. Paradise City (6:47)
5. Knockin' On Heaven's Door (5:36)
6. Civil War (7:42)
7. You Could Be Mine (5:43)
8. Don't Cry (4:45)
9. November Rain (8:56)
10. Live And Let Die (3:02)
11. Yesterdays (3:16)
12. Ain't It Fun (5:07)
13. Since I Don't Have You (4:19)
14. Sympathy For The Devil (7:35)

Отчет EAC

EAC extraction logfile from 25. September 2005, 12:14 for CD
Guns N' Roses / Greatest Hits
Used drive : LITE-ON LTR-48246S Adapter: 1 ID: 1
Read mode : Secure with NO C2, accurate stream, disable cache
Read offset correction : 6
Overread into Lead-In and Lead-Out : Yes
Used output format : Internal WAV Routines
44.100 Hz; 16 Bit; Stereo
Other options :
Fill up missing offset samples with silence : Yes
Delete leading and trailing silent blocks : No
Native Win32 interface for Win NT & 2000
Track 1
Filename D:\Bridge\Guns n' Roses\Guns n' Roses - Greatest Hits (2004) [FLAC]\01 - Welcome To The Jungle.wav
Pre-gap length 0:00:02.00
Peak level 98.8 %
Track quality 100.0 %
Test CRC 81FE4852
Copy CRC 81FE4852
Copy OK
Track 2
Filename D:\Bridge\Guns n' Roses\Guns n' Roses - Greatest Hits (2004) [FLAC]\02 - Sweet Child O' Mine.wav
Peak level 98.8 %
Track quality 100.0 %
Test CRC 62F36B2C
Copy CRC 62F36B2C
Copy OK
Track 3
Filename D:\Bridge\Guns n' Roses\Guns n' Roses - Greatest Hits (2004) [FLAC]\03 - Patience.wav
Peak level 80.8 %
Track quality 100.0 %
Test CRC 41D6082C
Copy CRC 41D6082C
Copy OK
Track 4
Filename D:\Bridge\Guns n' Roses\Guns n' Roses - Greatest Hits (2004) [FLAC]\04 - Paradise City.wav
Peak level 98.8 %
Track quality 100.0 %
Test CRC 945EAF46
Copy CRC 945EAF46
Copy OK
Track 5
Filename D:\Bridge\Guns n' Roses\Guns n' Roses - Greatest Hits (2004) [FLAC]\05 - Knockin' On Heaven's Door.wav
Pre-gap length 0:00:01.28
Peak level 98.8 %
Track quality 100.0 %
Test CRC 26FB8B3E
Copy CRC 26FB8B3E
Copy OK
Track 6
Filename D:\Bridge\Guns n' Roses\Guns n' Roses - Greatest Hits (2004) [FLAC]\06 - Civil War.wav
Peak level 98.8 %
Track quality 100.0 %
Test CRC 40C3BE48
Copy CRC 40C3BE48
Copy OK
Track 7
Filename D:\Bridge\Guns n' Roses\Guns n' Roses - Greatest Hits (2004) [FLAC]\07 - You Could Be Mine.wav
Pre-gap length 0:00:01.77
Peak level 98.8 %
Track quality 99.9 %
Test CRC E9882C9A
Copy CRC E9882C9A
Copy OK
Track 8
Filename D:\Bridge\Guns n' Roses\Guns n' Roses - Greatest Hits (2004) [FLAC]\08 - Don't Cry (Original).wav
Peak level 98.8 %
Track quality 100.0 %
Test CRC 54B3FE28
Copy CRC 54B3FE28
Copy OK
Track 9
Filename D:\Bridge\Guns n' Roses\Guns n' Roses - Greatest Hits (2004) [FLAC]\09 - November Rain.wav
Pre-gap length 0:00:01.60
Peak level 98.8 %
Track quality 99.9 %
Test CRC 8FACE713
Copy CRC 8FACE713
Copy OK
Track 10
Filename D:\Bridge\Guns n' Roses\Guns n' Roses - Greatest Hits (2004) [FLAC]\10 - Live And Let Die.wav
Peak level 98.8 %
Track quality 100.0 %
Test CRC C44DF87D
Copy CRC C44DF87D
Copy OK
Track 11
Filename D:\Bridge\Guns n' Roses\Guns n' Roses - Greatest Hits (2004) [FLAC]\11 - Yesterdays.wav
Peak level 98.8 %
Track quality 100.0 %
Test CRC F73F0CCF
Copy CRC F73F0CCF
Copy OK
Track 12
Filename D:\Bridge\Guns n' Roses\Guns n' Roses - Greatest Hits (2004) [FLAC]\12 - Ain't It Fun.wav
Pre-gap length 0:00:01.57
Peak level 85.4 %
Track quality 100.0 %
Test CRC 38B1A98B
Copy CRC 38B1A98B
Copy OK
Track 13
Filename D:\Bridge\Guns n' Roses\Guns n' Roses - Greatest Hits (2004) [FLAC]\13 - Since I Don't Have You.wav
Pre-gap length 0:00:01.26
Peak level 93.2 %
Track quality 100.0 %
Test CRC B1BB2EC5
Copy CRC B1BB2EC5
Copy OK
Track 14
Filename D:\Bridge\Guns n' Roses\Guns n' Roses - Greatest Hits (2004) [FLAC]\14 - Sympathy For The Devil.wav
Peak level 94.2 %
Track quality 99.8 %
Test CRC A0272AA6
Copy CRC A0272AA6
Copy OK
No errors occured
End of status report
Скачать

Скачать торрент! (Hard-Rock, Rock) Guns N` Roses - Discography 7 официальных альбомов и 3 сингла - 1987, FLAC (tracks), lossless

Как скачивать? · Что такое торрент? · Рейтинг и ограничения

Сайт не распространяет и не хранит электронные версии произведений, а лишь предоставляет доступ к создаваемому пользователями каталогу ссылок на торрент-файлы, которые содержат только списки хеш-сумм

[Профиль] [ЛС]
Показать сообщения:    
Ответить на тему

Текущее время: Сегодня 14:18

Часовой пояс: GMT + 4



Вы не можете начинать темы
Вы не можете отвечать на сообщения
Вы не можете редактировать свои сообщения
Вы не можете удалять свои сообщения
Вы не можете голосовать в опросах
Вы не можете прикреплять файлы к сообщениям
Вы не можете скачивать файлы