(Hard Rock) AC-DC 20CD (Japanese Press 2007-2008) [Cardboard Sleeve] [Limited Release] - 2008, FLAC (image + .cue), lossless

Ответить на тему
 
Автор Сообщение

admin ®

Пол:

Стаж: 8 лет 9 месяцев

Сообщений: 809

Пост Пост: #1 от 24-Июл-2009 19:38

[Цитировать]

AC-DC 20CD (Japanese Press 2007-2008) [Cardboard Sleeve] [Limited Release]
Страна: Japanese - Sony Music Entertainment
Жанр: Hard Rock
Год выпуска: 2008
Формат: FLAC (image + .cue)
Битрейт аудио: lossless
Трэклист:

'74 Jailbreak (Japanese SICP-1706)

Tracklist:
01. Jailbreak [0:04:40.72]
02. You Ain't Got A Hold On Me [0:03:31.36]
03. Show Business [0:04:46.34]
04. Soul Stripper [0:06:25.01]
05. Baby, Please Don't Go [0:05:00.01]

Log:

Exact Audio Copy V0.99 prebeta 4 from 23. January 2008
Отчёт EAC об извлечении, выполненном 2. апреля 2008, 17:14
AC-DC / '74 Jailbreak (Japanese SICP-1706)
Дисковод: PLEXTOR DVDR PX-716A Adapter: 3 ID: 0
Режим чтения : Достоверность
Использование точного потока : Да
Отключение кэша аудио : Да
Использование указателей C2 : Нет
Коррекция смещения при чтении : 30
Способность читать области Lead-in и Lead-out : Да
Заполнение пропущенных сэмплов тишиной : Да
Удаление блоков с тишиной в начале и конце : Нет
При вычислениях CRC использовались нулевые сэмплы : Нет
Интерфейс : Установленный внешний ASPI-интерфейс
Выходной формат : Пользовательский кодировщик
Выбранный битрейт : 32 kBit/s
Качество : Высокий
Добавление ID3-тэга : Да
Утилита сжатия : C:\Program Files\Audio\Exact Audio Copy 099pb4\Flac\flac.exe
Дополнительные параметры : -6 -V -T "artist=%a" -T "title=%t" -T "album=%g" -T "date=%y" -T "tracknumber=%n" -T "genre=%m" -T "comment=EAC v0.99pb4 / FLAC 1.2.1 q6" %s
TOC извлечённого CD
Трек | Старт | Длительность | Начальный сектор | Конечный сектор
---------------------------------------------------------------------
1 | 0:00.00 | 4:40.72 | 0 | 21071
2 | 4:40.72 | 3:31.36 | 21072 | 36932
3 | 8:12.33 | 4:46.34 | 36933 | 58416
4 | 12:58.67 | 6:25.01 | 58417 | 87292
5 | 19:23.68 | 5:00.01 | 87293 | 109793
Характеристики диапазона извлечения и сообщения об ошибках
Выбранный диапазон
Имя файла F:\CDImage\AC-DC_1975_Japanese\CDImage.wav
Пиковый уровень 100.0 %
Качество диапазона 100.0 %
CRC копии 92109B5A
Копирование... OK
Ошибок не произошло
Конец отчёта

High Voltage (Japanese SICP-1700)

Tracklist:
01. It's A Long Way To The Top (If You Wanna Rock 'N' Roll) [0:05:01.70]
02. Rock 'N' Roll Singer [0:05:03.52]
03. The Jack [0:05:52.73]
04. Live Wire [0:05:49.72]
05. T.N.T. [0:03:34.59]
06. Can I Sit Next To You Girl [0:04:12.01]
07. Little Lover [0:05:39.45]
08. She's Got Balls [0:04:51.40]
09. High Voltage [0:04:14.18]

Log:

Exact Audio Copy V0.99 prebeta 4 from 23. January 2008
Отчёт EAC об извлечении, выполненном 4. апреля 2008, 17:10
AC-DC / High Voltage (Japanese SICP-1700)
Дисковод: PLEXTOR DVDR PX-716A Adapter: 3 ID: 0
Режим чтения : Достоверность
Использование точного потока : Да
Отключение кэша аудио : Да
Использование указателей C2 : Нет
Коррекция смещения при чтении : 30
Способность читать области Lead-in и Lead-out : Да
Заполнение пропущенных сэмплов тишиной : Да
Удаление блоков с тишиной в начале и конце : Нет
При вычислениях CRC использовались нулевые сэмплы : Нет
Интерфейс : Установленный внешний ASPI-интерфейс
Выходной формат : Пользовательский кодировщик
Выбранный битрейт : 32 kBit/s
Качество : Высокий
Добавление ID3-тэга : Да
Утилита сжатия : C:\Program Files\Audio\Exact Audio Copy 099pb4\Flac\flac.exe
Дополнительные параметры : -6 -V -T "artist=%a" -T "title=%t" -T "album=%g" -T "date=%y" -T "tracknumber=%n" -T "genre=%m" -T "comment=EAC v0.99pb4 / FLAC 1.2.1 q6" %s
TOC извлечённого CD
Трек | Старт | Длительность | Начальный сектор | Конечный сектор
---------------------------------------------------------------------
1 | 0:00.00 | 5:01.70 | 0 | 22644
2 | 5:01.70 | 5:03.52 | 22645 | 45421
3 | 10:05.47 | 5:52.73 | 45422 | 71894
4 | 15:58.45 | 5:49.72 | 71895 | 98141
5 | 21:48.42 | 3:34.59 | 98142 | 114250
6 | 25:23.26 | 4:12.01 | 114251 | 133151
7 | 29:35.27 | 5:39.45 | 133152 | 158621
8 | 35:14.72 | 4:51.40 | 158622 | 180486
9 | 40:06.37 | 4:14.18 | 180487 | 199554
Характеристики диапазона извлечения и сообщения об ошибках
Выбранный диапазон
Имя файла F:\CDImage\AC-DC_1976_Japanese\CDImage.wav
Пиковый уровень 100.0 %
Качество диапазона 100.0 %
CRC копии 557A74F3
Копирование... OK
Ошибок не произошло
Конец отчёта

Dirty Deeds Done Dirt Cheap (Japanese SICP-1701)

Tracklist:
01. Dirty Deeds Done Dirt Cheap [0:03:51.72]
02. Love At First Feel [0:03:12.70]
03. Big Balls [0:02:38.60]
04. Rocker [0:02:51.63]
05. Problem Child [0:05:46.52]
06. There's Gonna Be Some Rockin' [0:03:18.25]
07. Ain't No Fun (Waiting Round To Be A Millionaire) [0:06:57.53]
08. Ride On [0:05:53.40]
09. Squealer [0:05:27.37]

Log:

Exact Audio Copy V0.99 prebeta 4 from 23. January 2008
Отчёт EAC об извлечении, выполненном 7. апреля 2008, 19:58
AC-DC / Dirty Deeds Done Dirt Cheap (Japanese SICP-1701)
Дисковод: PLEXTOR DVDR PX-716A Adapter: 3 ID: 0
Режим чтения : Достоверность
Использование точного потока : Да
Отключение кэша аудио : Да
Использование указателей C2 : Нет
Коррекция смещения при чтении : 30
Способность читать области Lead-in и Lead-out : Да
Заполнение пропущенных сэмплов тишиной : Да
Удаление блоков с тишиной в начале и конце : Нет
При вычислениях CRC использовались нулевые сэмплы : Нет
Интерфейс : Установленный внешний ASPI-интерфейс
Выходной формат : Пользовательский кодировщик
Выбранный битрейт : 32 kBit/s
Качество : Высокий
Добавление ID3-тэга : Да
Утилита сжатия : C:\Program Files\Audio\Exact Audio Copy 099pb4\Flac\flac.exe
Дополнительные параметры : -6 -V -T "artist=%a" -T "title=%t" -T "album=%g" -T "date=%y" -T "tracknumber=%n" -T "genre=%m" -T "comment=EAC v0.99pb4 / FLAC 1.2.1 q6" %s
TOC извлечённого CD
Трек | Старт | Длительность | Начальный сектор | Конечный сектор
---------------------------------------------------------------------
1 | 0:00.00 | 3:51.72 | 0 | 17396
2 | 3:51.72 | 3:12.70 | 17397 | 31866
3 | 7:04.67 | 2:38.60 | 31867 | 43776
4 | 9:43.52 | 2:51.63 | 43777 | 56664
5 | 12:35.40 | 5:46.52 | 56665 | 82666
6 | 18:22.17 | 3:18.25 | 82667 | 97541
7 | 21:40.42 | 6:57.53 | 97542 | 128869
8 | 28:38.20 | 5:53.40 | 128870 | 155384
9 | 34:31.60 | 5:27.37 | 155385 | 179946
Характеристики диапазона извлечения и сообщения об ошибках
Выбранный диапазон
Имя файла F:\CDImage\AC-DC_1976.2_Japanese\CDImage.wav
Пиковый уровень 100.0 %
Качество диапазона 100.0 %
CRC копии 3E779C9D
Копирование... OK
Ошибок не произошло
Конец отчёта

Let There Be Rock (Japanese SICP-1702)

Tracklist:
01. Go Down [0:05:31.32]
02. Dog Eat Dog [0:03:34.55]
03. Let There Be Rock [0:06:06.33]
04. Bad Boy Boogie [0:04:27.40]
05. Problem Child [0:05:24.66]
06. Overdose [0:06:08.66]
07. Hell Ain't A Bad Place To Be [0:04:14.13]
08. Whole Lotta Rosie [0:05:33.69]

Log:

Exact Audio Copy V0.99 prebeta 4 from 23. January 2008
Отчёт EAC об извлечении, выполненном 8. апреля 2008, 10:55
AC-DC / Let There Be Rock (Japanese SICP-1702)
Дисковод: PLEXTOR DVDR PX-716A Adapter: 3 ID: 0
Режим чтения : Достоверность
Использование точного потока : Да
Отключение кэша аудио : Да
Использование указателей C2 : Нет
Коррекция смещения при чтении : 30
Способность читать области Lead-in и Lead-out : Да
Заполнение пропущенных сэмплов тишиной : Да
Удаление блоков с тишиной в начале и конце : Нет
При вычислениях CRC использовались нулевые сэмплы : Нет
Интерфейс : Установленный внешний ASPI-интерфейс
Выходной формат : Пользовательский кодировщик
Выбранный битрейт : 32 kBit/s
Качество : Высокий
Добавление ID3-тэга : Да
Утилита сжатия : C:\Program Files\Audio\Exact Audio Copy 099pb4\Flac\flac.exe
Дополнительные параметры : -6 -V -T "artist=%a" -T "title=%t" -T "album=%g" -T "date=%y" -T "tracknumber=%n" -T "genre=%m" -T "comment=EAC v0.99pb4 / FLAC 1.2.1 q6" %s
TOC извлечённого CD
Трек | Старт | Длительность | Начальный сектор | Конечный сектор
---------------------------------------------------------------------
1 | 0:00.00 | 5:31.32 | 0 | 24856
2 | 5:31.32 | 3:34.55 | 24857 | 40961
3 | 9:06.12 | 6:06.33 | 40962 | 68444
4 | 15:12.45 | 4:27.40 | 68445 | 88509
5 | 19:40.10 | 5:24.66 | 88510 | 112875
6 | 25:05.01 | 6:08.66 | 112876 | 140541
7 | 31:13.67 | 4:14.13 | 140542 | 159604
8 | 35:28.05 | 5:33.69 | 159605 | 184648
Характеристики диапазона извлечения и сообщения об ошибках
Выбранный диапазон
Имя файла F:\CDImage\AC-DC_1977_Japanese\CDImage.wav
Пиковый уровень 100.0 %
Качество диапазона 100.0 %
CRC копии FB8C3522
Копирование... OK
Ошибок не произошло
Конец отчёта

Powerage (Japanese SICP-1703)

Tracklist:
01. Rock 'N' Roll Damnation [0:03:37.48]
02. Down Payment Blues [0:06:03.55]
03. Gimme A Bullet [0:03:21.45]
04. Riff Raff [0:05:11.72]
05. Sin City [0:04:45.03]
06. What's Next To The Moon [0:03:31.61]
07. Gone Shootin' [0:05:05.44]
08. Up To My Neck In You [0:04:13.32]
09. Kicked In The Teeth [0:04:03.30]

Log:

Exact Audio Copy V0.99 prebeta 4 from 23. January 2008
Отчёт EAC об извлечении, выполненном 11. апреля 2008, 12:00
AC-DC / Powerage (Japanese SICP 1703)
Дисковод: PLEXTOR DVDR PX-716A Adapter: 3 ID: 0
Режим чтения : Достоверность
Использование точного потока : Да
Отключение кэша аудио : Да
Использование указателей C2 : Нет
Коррекция смещения при чтении : 30
Способность читать области Lead-in и Lead-out : Да
Заполнение пропущенных сэмплов тишиной : Да
Удаление блоков с тишиной в начале и конце : Нет
При вычислениях CRC использовались нулевые сэмплы : Нет
Интерфейс : Установленный внешний ASPI-интерфейс
Выходной формат : Пользовательский кодировщик
Выбранный битрейт : 32 kBit/s
Качество : Высокий
Добавление ID3-тэга : Да
Утилита сжатия : C:\Program Files\Audio\Exact Audio Copy 099pb4\Flac\flac.exe
Дополнительные параметры : -6 -V -T "artist=%a" -T "title=%t" -T "album=%g" -T "date=%y" -T "tracknumber=%n" -T "genre=%m" -T "comment=EAC v0.99pb4 / FLAC 1.2.1 q6" %s
TOC извлечённого CD
Трек | Старт | Длительность | Начальный сектор | Конечный сектор
---------------------------------------------------------------------
1 | 0:00.00 | 3:37.48 | 0 | 16322
2 | 3:37.48 | 6:03.55 | 16323 | 43602
3 | 9:41.28 | 3:21.45 | 43603 | 58722
4 | 13:02.73 | 5:11.72 | 58723 | 82119
5 | 18:14.70 | 4:45.03 | 82120 | 103497
6 | 22:59.73 | 3:31.61 | 103498 | 119383
7 | 26:31.59 | 5:05.44 | 119384 | 142302
8 | 31:37.28 | 4:13.32 | 142303 | 161309
9 | 35:50.60 | 4:03.30 | 161310 | 179564
Характеристики диапазона извлечения и сообщения об ошибках
Выбранный диапазон
Имя файла F:\CDImage\AC-DC_1978_Japanese\CDImage.wav
Пиковый уровень 100.0 %
Качество диапазона 100.0 %
CRC копии 0D8AB5F4
Копирование... OK
Ошибок не произошло
Конец отчёта

If You Want Blood You've Got It (Japanese SICP-1704)

Tracklist:
01. Riff Raff [0:05:59.06]
02. Hell Ain't A Bad Place To Be [0:04:10.72]
03. Bad Boy Boogie [0:07:29.74]
04. The Jack [0:05:48.43]
05. Problem Child [0:04:40.70]
06. Whole Lotta Rosie [0:04:05.00]
07. Rock 'N' Roll Damnation [0:03:41.04]
08. High Voltage [0:05:05.27]
09. Let There Be Rock [0:08:33.53]
10. Rocker [0:03:24.68]

Log:

Exact Audio Copy V0.99 prebeta 4 from 23. January 2008
Отчёт EAC об извлечении, выполненном 11. апреля 2008, 14:10
AC-DC / If You Want Blood You've Got It (Japanese SICP-1704)
Дисковод: PLEXTOR DVDR PX-716A Adapter: 3 ID: 0
Режим чтения : Достоверность
Использование точного потока : Да
Отключение кэша аудио : Да
Использование указателей C2 : Нет
Коррекция смещения при чтении : 30
Способность читать области Lead-in и Lead-out : Да
Заполнение пропущенных сэмплов тишиной : Да
Удаление блоков с тишиной в начале и конце : Нет
При вычислениях CRC использовались нулевые сэмплы : Нет
Интерфейс : Установленный внешний ASPI-интерфейс
Выходной формат : Пользовательский кодировщик
Выбранный битрейт : 32 kBit/s
Качество : Высокий
Добавление ID3-тэга : Да
Утилита сжатия : C:\Program Files\Audio\Exact Audio Copy 099pb4\Flac\flac.exe
Дополнительные параметры : -6 -V -T "artist=%a" -T "title=%t" -T "album=%g" -T "date=%y" -T "tracknumber=%n" -T "genre=%m" -T "comment=EAC v0.99pb4 / FLAC 1.2.1 q6" %s
TOC извлечённого CD
Трек | Старт | Длительность | Начальный сектор | Конечный сектор
---------------------------------------------------------------------
1 | 0:00.00 | 5:59.06 | 0 | 26930
2 | 5:59.06 | 4:10.72 | 26931 | 45752
3 | 10:10.03 | 7:29.74 | 45753 | 79501
4 | 17:40.02 | 5:48.43 | 79502 | 105644
5 | 23:28.45 | 4:40.70 | 105645 | 126714
6 | 28:09.40 | 4:05.00 | 126715 | 145089
7 | 32:14.40 | 3:41.04 | 145090 | 161668
8 | 35:55.44 | 5:05.27 | 161669 | 184570
9 | 41:00.71 | 8:33.53 | 184571 | 223098
10 | 49:34.49 | 3:24.68 | 223099 | 238466
Характеристики диапазона извлечения и сообщения об ошибках
Выбранный диапазон
Имя файла F:\CDImage\AC-DC_1978-Live_Japanese\CDImage.wav
Пиковый уровень 100.0 %
Качество диапазона 100.0 %
CRC копии 0DF798E4
Копирование... OK
Ошибок не произошло
Конец отчёта

Highway To Hell (Japanese SICP-1705)

Tracklist:
01. Highway To Hell [0:03:28.30]
02. Girls Got Rhythm [0:03:23.22]
03. Walk All Over You [0:05:10.00]
04. Touch Too Much [0:04:26.20]
05. Beating Around The Bush [0:03:55.55]
06. Shot Down In Flames [0:03:22.65]
07. Get It Hot [0:02:34.38]
08. If You Want Blood (You've Got It) [0:04:36.42]
09. Love Hungry Man [0:04:17.13]
10. Night Prowler [0:06:27.72]

Log:

Exact Audio Copy V0.99 prebeta 4 from 23. January 2008
Отчёт EAC об извлечении, выполненном 13. апреля 2008, 11:48
AC-DC / Highway To Hell (Japanese SICP-1705)
Дисковод: PLEXTOR DVDR PX-716A Adapter: 3 ID: 0
Режим чтения : Достоверность
Использование точного потока : Да
Отключение кэша аудио : Да
Использование указателей C2 : Нет
Коррекция смещения при чтении : 30
Способность читать области Lead-in и Lead-out : Да
Заполнение пропущенных сэмплов тишиной : Да
Удаление блоков с тишиной в начале и конце : Нет
При вычислениях CRC использовались нулевые сэмплы : Нет
Интерфейс : Установленный внешний ASPI-интерфейс
Выходной формат : Пользовательский кодировщик
Выбранный битрейт : 32 kBit/s
Качество : Высокий
Добавление ID3-тэга : Да
Утилита сжатия : C:\Program Files\Audio\Exact Audio Copy 099pb4\Flac\flac.exe
Дополнительные параметры : -6 -V -T "artist=%a" -T "title=%t" -T "album=%g" -T "date=%y" -T "tracknumber=%n" -T "genre=%m" -T "comment=EAC v0.99pb4 / FLAC 1.2.1 q6" %s
TOC извлечённого CD
Трек | Старт | Длительность | Начальный сектор | Конечный сектор
---------------------------------------------------------------------
1 | 0:00.00 | 3:28.30 | 0 | 15629
2 | 3:28.30 | 3:23.22 | 15630 | 30876
3 | 6:51.52 | 5:10.00 | 30877 | 54126
4 | 12:01.52 | 4:26.20 | 54127 | 74096
5 | 16:27.72 | 3:55.55 | 74097 | 91776
6 | 20:23.52 | 3:22.65 | 91777 | 106991
7 | 23:46.42 | 2:34.38 | 106992 | 118579
8 | 26:21.05 | 4:36.42 | 118580 | 139321
9 | 30:57.47 | 4:17.13 | 139322 | 158609
10 | 35:14.60 | 6:27.72 | 158610 | 187706
Характеристики диапазона извлечения и сообщения об ошибках
Выбранный диапазон
Имя файла F:\CDImage\AC-DC_1979_Japanese\CDImage.wav
Пиковый уровень 100.0 %
Качество диапазона 99.9 %
CRC копии 355D4BC1
Копирование... OK
Ошибок не произошло
Конец отчёта

Back In Black (Japanese SICP-1707)

Tracklist:
01. Hells Bells [0:05:12.30]
02. Shoot To Thrill [0:05:17.45]
03. What Do You Do For Money Honey [0:03:35.20]
04. Givin The Dog A Bone [0:03:31.67]
05. Let Me Put My Love Into You [0:04:15.48]
06. Back In Black [0:04:15.22]
07. You Shook Me All Night Long [0:03:30.15]
08. Have A Drink On Me [0:03:58.48]
09. Shake A Leg [0:04:05.37]
10. Rock And Roll Ain't Noise Pollution [0:04:26.03]

Log:

Exact Audio Copy V0.99 prebeta 4 from 23. January 2008
Отчёт EAC об извлечении, выполненном 15. апреля 2008, 10:46
AC-DC / Back In Black (Japanese SICP-1707)
Дисковод: PLEXTOR DVDR PX-716A Adapter: 3 ID: 0
Режим чтения : Достоверность
Использование точного потока : Да
Отключение кэша аудио : Да
Использование указателей C2 : Нет
Коррекция смещения при чтении : 30
Способность читать области Lead-in и Lead-out : Да
Заполнение пропущенных сэмплов тишиной : Да
Удаление блоков с тишиной в начале и конце : Нет
При вычислениях CRC использовались нулевые сэмплы : Нет
Интерфейс : Установленный внешний ASPI-интерфейс
Выходной формат : Пользовательский кодировщик
Выбранный битрейт : 32 kBit/s
Качество : Высокий
Добавление ID3-тэга : Да
Утилита сжатия : C:\Program Files\Audio\Exact Audio Copy 099pb4\Flac\flac.exe
Дополнительные параметры : -6 -V -T "artist=%a" -T "title=%t" -T "album=%g" -T "date=%y" -T "tracknumber=%n" -T "genre=%m" -T "comment=EAC v0.99pb4 / FLAC 1.2.1 q6" %s
TOC извлечённого CD
Трек | Старт | Длительность | Начальный сектор | Конечный сектор
---------------------------------------------------------------------
1 | 0:00.00 | 5:12.30 | 0 | 23429
2 | 5:12.30 | 5:17.45 | 23430 | 47249
3 | 10:30.00 | 3:35.20 | 47250 | 63394
4 | 14:05.20 | 3:31.67 | 63395 | 79286
5 | 17:37.12 | 4:15.48 | 79287 | 98459
6 | 21:52.60 | 4:15.22 | 98460 | 117606
7 | 26:08.07 | 3:30.15 | 117607 | 133371
8 | 29:38.22 | 3:58.48 | 133372 | 151269
9 | 33:36.70 | 4:05.37 | 151270 | 169681
10 | 37:42.32 | 4:26.03 | 169682 | 189634
Характеристики диапазона извлечения и сообщения об ошибках
Выбранный диапазон
Имя файла F:\CDImage\AC-DC_1980_Japanese\CDImage.wav
Пиковый уровень 100.0 %
Качество диапазона 100.0 %
CRC копии 3237C242
Копирование... OK
Ошибок не произошло
Конец отчёта

For Those About To Rock (We Salute You) (Japanese SICP-1708)

Tracklist:
01. For Those About To Rock (We Salute You) [0:05:44.18]
02. I Put The Finger On You [0:03:25.51]
03. Let's Get It Up [0:03:54.05]
04. Inject The Venom [0:03:30.66]
05. Snowballed [0:03:23.08]
06. Evil Walks [0:04:23.51]
07. C.O.D. [0:03:19.65]
08. Breaking The Rules [0:04:23.33]
09. Night Of The Long Knives [0:03:25.56]
10. Spellbound [0:04:39.32]

Log:

Exact Audio Copy V0.99 prebeta 4 from 23. January 2008
Отчёт EAC об извлечении, выполненном 10. сентября 2008, 14:00
AC-DC / For Those About To Rock (We Salute You) (Japanese SICP-1708)
Дисковод: PLEXTOR DVDR PX-716A Adapter: 3 ID: 0
Режим чтения : Достоверность
Использование точного потока : Да
Отключение кэша аудио : Да
Использование указателей C2 : Нет
Коррекция смещения при чтении : 30
Способность читать области Lead-in и Lead-out : Да
Заполнение пропущенных сэмплов тишиной : Да
Удаление блоков с тишиной в начале и конце : Нет
При вычислениях CRC использовались нулевые сэмплы : Нет
Интерфейс : Установленный внешний ASPI-интерфейс
Выходной формат : Пользовательский кодировщик
Выбранный битрейт : 32 kBit/s
Качество : Высокий
Добавление ID3-тэга : Да
Утилита сжатия : C:\Program Files\AUDIO\Exact Audio Copy 099pb4\Flac\flac.exe
Дополнительные параметры : -6 -V -T "artist=%a" -T "title=%t" -T "album=%g" -T "date=%y" -T "tracknumber=%n" -T "genre=%m" -T "comment=EAC 0.95prebeta5 / FLAC 1.1.2 q6" %s
TOC извлечённого CD
Трек | Старт | Длительность | Начальный сектор | Конечный сектор
---------------------------------------------------------------------
1 | 0:00.00 | 5:44.18 | 0 | 25817
2 | 5:44.18 | 3:25.51 | 25818 | 41243
3 | 9:09.69 | 3:54.05 | 41244 | 58798
4 | 13:03.74 | 3:30.66 | 58799 | 74614
5 | 16:34.65 | 3:23.08 | 74615 | 89847
6 | 19:57.73 | 4:23.51 | 89848 | 109623
7 | 24:21.49 | 3:19.65 | 109624 | 124613
8 | 27:41.39 | 4:23.33 | 124614 | 144371
9 | 32:04.72 | 3:25.56 | 144372 | 159802
10 | 35:30.53 | 4:39.32 | 159803 | 180759
Характеристики диапазона извлечения и сообщения об ошибках
Выбранный диапазон
Имя файла D:\MY_Create\AC-DC_81\AC-DC - For Those About To Rock (We Salute You) (Japanese SICP-1708).wav
Пиковый уровень 100.0 %
Качество диапазона 99.9 %
CRC копии BBD8BF45
Копирование... OK
Ошибок не произошло
Конец отчёта

Flick Of The Switch (Japanese SICP-1709)

Tracklist:
01. Rising Power [0:03:43.51]
02. This House Is On Fire [0:03:23.37]
03. Flick Of The Switch [0:03:13.43]
04. Nervous Shakedown [0:04:27.08]
05. Landslide [0:03:57.65]
06. Guns For Hire [0:03:24.46]
07. Deep In The Hole [0:03:19.43]
08. Bedlam In Belgium [0:03:52.10]
09. Badlands [0:03:38.44]
10. Brain Shake [0:04:09.22]

Log:

Exact Audio Copy V0.99 prebeta 4 from 23. January 2008
Отчёт EAC об извлечении, выполненном 20. апреля 2008, 18:48
AC-DC / Flick Of The Switch (Japanese SICP-1709)
Дисковод: PLEXTOR DVDR PX-716A Adapter: 3 ID: 0
Режим чтения : Достоверность
Использование точного потока : Да
Отключение кэша аудио : Да
Использование указателей C2 : Нет
Коррекция смещения при чтении : 30
Способность читать области Lead-in и Lead-out : Да
Заполнение пропущенных сэмплов тишиной : Да
Удаление блоков с тишиной в начале и конце : Нет
При вычислениях CRC использовались нулевые сэмплы : Нет
Интерфейс : Установленный внешний ASPI-интерфейс
Выходной формат : Пользовательский кодировщик
Выбранный битрейт : 32 kBit/s
Качество : Высокий
Добавление ID3-тэга : Да
Утилита сжатия : C:\Program Files\Audio\Exact Audio Copy 099pb4\Flac\flac.exe
Дополнительные параметры : -6 -V -T "artist=%a" -T "title=%t" -T "album=%g" -T "date=%y" -T "tracknumber=%n" -T "genre=%m" -T "comment=EAC v0.99pb4 / FLAC 1.2.1 q6" %s
TOC извлечённого CD
Трек | Старт | Длительность | Начальный сектор | Конечный сектор
---------------------------------------------------------------------
1 | 0:00.00 | 3:43.51 | 0 | 16775
2 | 3:43.51 | 3:23.37 | 16776 | 32037
3 | 7:07.13 | 3:13.43 | 32038 | 46555
4 | 10:20.56 | 4:27.08 | 46556 | 66588
5 | 14:47.64 | 3:57.65 | 66589 | 84428
6 | 18:45.54 | 3:24.46 | 84429 | 99774
7 | 22:10.25 | 3:19.43 | 99775 | 114742
8 | 25:29.68 | 3:52.10 | 114743 | 132152
9 | 29:22.03 | 3:38.44 | 132153 | 148546
10 | 33:00.47 | 4:09.22 | 148547 | 167243
Характеристики диапазона извлечения и сообщения об ошибках
Выбранный диапазон
Имя файла F:\CDImage\AC-DC_1983_Japanese\CDImage.wav
Пиковый уровень 100.0 %
Качество диапазона 100.0 %
CRC копии 683EED1D
Копирование... OK
Ошибок не произошло
Конец отчёта

Fly On The Wall (Japanese SICP-1710)

Tracklist:
01. Fly On The Wall [0:03:44.14]
02. Shake Your Foundations [0:04:10.49]
03. First Blood [0:03:45.73]
04. Danger [0:04:22.41]
05. Sink The Pink [0:04:15.11]
06. Playing With Girls [0:03:44.71]
07. Stand Up [0:03:53.24]
08. Hell Or High Water [0:04:32.26]
09. Back In Business [0:04:24.28]
10. Send For The Man [0:03:36.66]

Log:

Exact Audio Copy V0.99 prebeta 4 from 23. January 2008
Отчёт EAC об извлечении, выполненном 13. сентября 2008, 13:04
AC-DC / Fly On The Wall (Japanese SICP-1710)
Дисковод: PLEXTOR DVDR PX-716A Adapter: 3 ID: 0
Режим чтения : Достоверность
Использование точного потока : Да
Отключение кэша аудио : Да
Использование указателей C2 : Нет
Коррекция смещения при чтении : 30
Способность читать области Lead-in и Lead-out : Да
Заполнение пропущенных сэмплов тишиной : Да
Удаление блоков с тишиной в начале и конце : Нет
При вычислениях CRC использовались нулевые сэмплы : Нет
Интерфейс : Установленный внешний ASPI-интерфейс
Выходной формат : Пользовательский кодировщик
Выбранный битрейт : 32 kBit/s
Качество : Высокий
Добавление ID3-тэга : Да
Утилита сжатия : C:\Program Files\AUDIO\Exact Audio Copy 099pb4\Flac\flac.exe
Дополнительные параметры : -6 -V -T "artist=%a" -T "title=%t" -T "album=%g" -T "date=%y" -T "tracknumber=%n" -T "genre=%m" -T "comment=EAC 0.95prebeta5 / FLAC 1.1.2 q6" %s
TOC извлечённого CD
Трек | Старт | Длительность | Начальный сектор | Конечный сектор
---------------------------------------------------------------------
1 | 0:00.00 | 3:44.14 | 0 | 16813
2 | 3:44.14 | 4:10.49 | 16814 | 35612
3 | 7:54.63 | 3:45.73 | 35613 | 52560
4 | 11:40.61 | 4:22.41 | 52561 | 72251
5 | 16:03.27 | 4:15.11 | 72252 | 91387
6 | 20:18.38 | 3:44.71 | 91388 | 108258
7 | 24:03.34 | 3:53.24 | 108259 | 125757
8 | 27:56.58 | 4:32.26 | 125758 | 146183
9 | 32:29.09 | 4:24.28 | 146184 | 166011
10 | 36:53.37 | 3:36.66 | 166012 | 182277
Характеристики диапазона извлечения и сообщения об ошибках
Выбранный диапазон
Имя файла D:\MY_Create\AC-DC_85\AC-DC - Fly On The Wall (Japanese SICP-1710).wav
Пиковый уровень 100.0 %
Качество диапазона 99.9 %
CRC копии DC9F43CC
Копирование... OK
Ошибок не произошло
Конец отчёта

Blow Up Your Video (Japanese SICP-1711)

Tracklist:
01. Heatseeker [0:03:50.22]
02. That's The Way I Wanna Rock N Roll [0:03:45.00]
03. Mean Streak [0:04:08.35]
04. Go Zone [0:04:26.30]
05. Kissin' Dynamite [0:03:58.33]
06. Nick Of Time [0:04:16.38]
07. Some Sin For Nuthin' [0:04:11.18]
08. Ruff Stuff [0:04:28.55]
09. Two's Up [0:05:19.70]
10. This Means War [0:04:32.35]

Log:

Exact Audio Copy V0.99 prebeta 4 from 23. January 2008
Отчёт EAC об извлечении, выполненном 30. сентября 2008, 13:27
AC-DC / Blow Up Your Video (Japanese SICP-1711)
Дисковод: PLEXTOR DVDR PX-716A Adapter: 3 ID: 0
Режим чтения : Достоверность
Использование точного потока : Да
Отключение кэша аудио : Да
Использование указателей C2 : Нет
Коррекция смещения при чтении : 30
Способность читать области Lead-in и Lead-out : Да
Заполнение пропущенных сэмплов тишиной : Да
Удаление блоков с тишиной в начале и конце : Нет
При вычислениях CRC использовались нулевые сэмплы : Нет
Интерфейс : Установленный внешний ASPI-интерфейс
Выходной формат : Пользовательский кодировщик
Выбранный битрейт : 32 kBit/s
Качество : Высокий
Добавление ID3-тэга : Да
Утилита сжатия : C:\Program Files\AUDIO\Exact Audio Copy 099pb4\Flac\flac.exe
Дополнительные параметры : -6 -V -T "artist=%a" -T "title=%t" -T "album=%g" -T "date=%y" -T "tracknumber=%n" -T "genre=%m" -T "comment=EAC 0.99prebeta4 / FLAC 1.2.1 q6" %s
TOC извлечённого CD
Трек | Старт | Длительность | Начальный сектор | Конечный сектор
---------------------------------------------------------------------
1 | 0:00.00 | 3:50.22 | 0 | 17271
2 | 3:50.22 | 3:45.00 | 17272 | 34146
3 | 7:35.22 | 4:08.35 | 34147 | 52781
4 | 11:43.57 | 4:26.30 | 52782 | 72761
5 | 16:10.12 | 3:58.33 | 72762 | 90644
6 | 20:08.45 | 4:16.38 | 90645 | 109882
7 | 24:25.08 | 4:11.18 | 109883 | 128725
8 | 28:36.26 | 4:28.55 | 128726 | 148880
9 | 33:05.06 | 5:19.70 | 148881 | 172875
10 | 38:25.01 | 4:32.35 | 172876 | 193310
Характеристики диапазона извлечения и сообщения об ошибках
Выбранный диапазон
Имя файла D:\MY_Create\AC-DC_88\AC-DC - Blow Up Your Video (Japanese SICP-1711).wav
Пиковый уровень 100.0 %
Качество диапазона 99.9 %
CRC копии 568CBB8A
Копирование... OK
Ошибок не произошло
Конец отчёта

The Razor's Edge (Japanese SICP-1712)

Tracklist:
01. Thunderstruck [0:04:52.64]
02. Fire Your Guns [0:02:53.56]
03. Moneytalks [0:03:45.71]
04. The Razors Edge [0:04:22.40]
05. Mistress For Christmas [0:03:59.39]
06. Rock Your Heart Out [0:04:06.51]
07. Are You Ready [0:04:10.25]
08. Got You By The Balls [0:04:30.18]
09. Shot Of Love [0:03:56.39]
10. Let's Make It [0:03:32.24]
11. Goodbye And Good Riddance To Bad Luck [0:03:13.41]
12. If You Dare [0:03:18.29]

Log:

Exact Audio Copy V0.99 prebeta 4 from 23. January 2008
Отчёт EAC об извлечении, выполненном 19. октября 2008, 10:18
AC-DC / The Razor's Edge (Japanese SICP-1712)
Дисковод: PLEXTOR DVDR PX-716A Adapter: 3 ID: 0
Режим чтения : Достоверность
Использование точного потока : Да
Отключение кэша аудио : Да
Использование указателей C2 : Нет
Коррекция смещения при чтении : 30
Способность читать области Lead-in и Lead-out : Да
Заполнение пропущенных сэмплов тишиной : Да
Удаление блоков с тишиной в начале и конце : Нет
При вычислениях CRC использовались нулевые сэмплы : Нет
Интерфейс : Установленный внешний ASPI-интерфейс
Выходной формат : Пользовательский кодировщик
Выбранный битрейт : 32 kBit/s
Качество : Высокий
Добавление ID3-тэга : Да
Утилита сжатия : C:\Program Files\AUDIO\Exact Audio Copy 099pb4\Flac\flac.exe
Дополнительные параметры : -6 -V -T "artist=%a" -T "title=%t" -T "album=%g" -T "date=%y" -T "tracknumber=%n" -T "genre=%m" -T "comment=EAC 0.99prebeta4 / FLAC 1.2.1 q6" %s
TOC извлечённого CD
Трек | Старт | Длительность | Начальный сектор | Конечный сектор
---------------------------------------------------------------------
1 | 0:00.00 | 4:52.64 | 0 | 21963
2 | 4:52.64 | 2:53.56 | 21964 | 34994
3 | 7:46.45 | 3:45.71 | 34995 | 51940
4 | 11:32.41 | 4:22.40 | 51941 | 71630
5 | 15:55.06 | 3:59.39 | 71631 | 89594
6 | 19:54.45 | 4:06.51 | 89595 | 108095
7 | 24:01.21 | 4:10.25 | 108096 | 126870
8 | 28:11.46 | 4:30.18 | 126871 | 147138
9 | 32:41.64 | 3:56.39 | 147139 | 164877
10 | 36:38.28 | 3:32.24 | 164878 | 180801
11 | 40:10.52 | 3:13.41 | 180802 | 195317
12 | 43:24.18 | 3:18.29 | 195318 | 210196
Характеристики диапазона извлечения и сообщения об ошибках
Выбранный диапазон
Имя файла D:\MY_Create\AC-DC_90\AC-DC - The Razor's Edge (Japanese SICP-1712).wav
Пиковый уровень 100.0 %
Качество диапазона 99.9 %
CRC копии F68C071F
Копирование... OK
Ошибок не произошло
Конец отчёта

Who Made Who (Japanese SICP-1713)

Tracklist:
01. Who Made Who [0:03:26.73]
02. You Shook Me All Night Long [0:03:30.66]
03. D.T. [0:02:53.54]
04. Sink The Pink [0:04:13.28]
05. Ride On [0:05:51.12]
06. Hells Bells [0:05:12.67]
07. Shake Your Foundations [0:03:53.52]
08. Chase The Ace [0:03:01.30]
09. For Those About To Rock (We Salute You) [0:05:53.61]

Log:

Exact Audio Copy V0.99 prebeta 4 from 23. January 2008
Отчёт EAC об извлечении, выполненном 26. сентября 2008, 12:16
AC-DC / Who Made Who (Japanese SICP-1713)
Дисковод: PLEXTOR DVDR PX-716A Adapter: 3 ID: 0
Режим чтения : Достоверность
Использование точного потока : Да
Отключение кэша аудио : Да
Использование указателей C2 : Нет
Коррекция смещения при чтении : 30
Способность читать области Lead-in и Lead-out : Да
Заполнение пропущенных сэмплов тишиной : Да
Удаление блоков с тишиной в начале и конце : Нет
При вычислениях CRC использовались нулевые сэмплы : Нет
Интерфейс : Установленный внешний ASPI-интерфейс
Выходной формат : Пользовательский кодировщик
Выбранный битрейт : 32 kBit/s
Качество : Высокий
Добавление ID3-тэга : Да
Утилита сжатия : C:\Program Files\AUDIO\Exact Audio Copy 099pb4\Flac\flac.exe
Дополнительные параметры : -6 -V -T "artist=%a" -T "title=%t" -T "album=%g" -T "date=%y" -T "tracknumber=%n" -T "genre=%m" -T "comment=EAC 0.95prebeta5 / FLAC 1.1.2 q6" %s
TOC извлечённого CD
Трек | Старт | Длительность | Начальный сектор | Конечный сектор
---------------------------------------------------------------------
1 | 0:00.00 | 3:26.73 | 0 | 15522
2 | 3:26.73 | 3:30.66 | 15523 | 31338
3 | 6:57.64 | 2:53.54 | 31339 | 44367
4 | 9:51.43 | 4:13.28 | 44368 | 63370
5 | 14:04.71 | 5:51.12 | 63371 | 89707
6 | 19:56.08 | 5:12.67 | 89708 | 113174
7 | 25:09.00 | 3:53.52 | 113175 | 130701
8 | 29:02.52 | 3:01.30 | 130702 | 144306
9 | 32:04.07 | 5:53.61 | 144307 | 170842
Характеристики диапазона извлечения и сообщения об ошибках
Выбранный диапазон
Имя файла D:\MY_Create\AC-DC_86\AC-DC - Who Made Who (Japanese SICP-1713).wav
Пиковый уровень 100.0 %
Качество диапазона 100.0 %
CRC копии DD2A416F
Копирование... OK
Ошибок не произошло
Конец отчёта

Live 2CD (Collector's Edition) (Japanese SICP-1714-5)

Tracklist CD1:
01. Thunderstruck [0:06:35.02]
02. Shoot To Thrill [0:05:23.00]
03. Back In Black [0:04:28.05]
04. Sin City [0:05:40.50]
05. Who Made Who [0:05:15.55]
06. Heatseeker [0:03:37.05]
07. Fire Your Guns [0:03:40.65]
08. Jailbreak [0:14:43.05]
09. The Jack [0:06:57.48]
10. The Razor's Edge [0:04:35.35]
11. Dirty Deeds Done Dirt Cheap [0:05:02.62]
12. Moneytalks [0:04:29.65]
Tracklist CD2:
01. Hells Bells [0:06:01.22]
02. Are You Ready [0:04:34.08]
03. That's The Way I Wanna Rock 'n' Roll [0:03:57.22]
04. High Voltage [0:10:33.10]
05. You Shook Me All Night Long [0:03:54.60]
06. Whole Lotta Rosie [0:04:30.60]
07. Let There Be Rock [0:12:17.08]
08. Bonny [0:01:03.27]
09. Highway To Hell [0:03:53.48]
10. T.N.T. [0:03:48.00]
11. For Those About To Rock (We Salute You) [0:07:17.62]

Log CD1:

Exact Audio Copy V0.99 prebeta 4 from 23. January 2008
Отчёт EAC об извлечении, выполненном 26. ноября 2008, 12:31
AC-DC / Live (Collector's Edition) (Japanese SICP-1714) CD1
Дисковод: PLEXTOR DVDR PX-716A Adapter: 3 ID: 0
Режим чтения : Достоверность
Использование точного потока : Да
Отключение кэша аудио : Да
Использование указателей C2 : Нет
Коррекция смещения при чтении : 30
Способность читать области Lead-in и Lead-out : Да
Заполнение пропущенных сэмплов тишиной : Да
Удаление блоков с тишиной в начале и конце : Нет
При вычислениях CRC использовались нулевые сэмплы : Нет
Интерфейс : Установленный внешний ASPI-интерфейс
Выходной формат : Пользовательский кодировщик
Выбранный битрейт : 32 kBit/s
Качество : Высокий
Добавление ID3-тэга : Да
Утилита сжатия : C:\Program Files\AUDIO\Exact Audio Copy 099pb4\Flac\flac.exe
Дополнительные параметры : -6 -V -T "artist=%a" -T "title=%t" -T "album=%g" -T "date=%y" -T "tracknumber=%n" -T "genre=%m" -T "comment=EAC 0.99prebeta4 / FLAC 1.2.1 q6" %s
TOC извлечённого CD
Трек | Старт | Длительность | Начальный сектор | Конечный сектор
---------------------------------------------------------------------
1 | 0:00.00 | 6:35.02 | 0 | 29626
2 | 6:35.02 | 5:23.00 | 29627 | 53851
3 | 11:58.02 | 4:28.05 | 53852 | 73956
4 | 16:26.07 | 5:40.50 | 73957 | 99506
5 | 22:06.57 | 5:15.55 | 99507 | 123186
6 | 27:22.37 | 3:37.05 | 123187 | 139466
7 | 30:59.42 | 3:40.65 | 139467 | 156031
8 | 34:40.32 | 14:43.05 | 156032 | 222261
9 | 49:23.37 | 6:57.48 | 222262 | 253584
10 | 56:21.10 | 4:35.35 | 253585 | 274244
11 | 60:56.45 | 5:02.62 | 274245 | 296956
12 | 65:59.32 | 4:29.65 | 296957 | 317196
Характеристики диапазона извлечения и сообщения об ошибках
Выбранный диапазон
Имя файла D:\MY_Create\AC-DC_1992_(Collector's Edition)\CD1\AC-DC - Live (Collector's Edition) (Japanese SICP-1714) CD1.wav
Пиковый уровень 100.0 %
Качество диапазона 100.0 %
CRC копии AAC9BCD2
Копирование... OK
Ошибок не произошло
Конец отчёта

Log CD2:

Exact Audio Copy V0.99 prebeta 4 from 23. January 2008
Отчёт EAC об извлечении, выполненном 26. ноября 2008, 13:12
AC-DC / Live (Collector's Edition) (Japanese SICP-1715) CD2
Дисковод: PLEXTOR DVDR PX-716A Adapter: 3 ID: 0
Режим чтения : Достоверность
Использование точного потока : Да
Отключение кэша аудио : Да
Использование указателей C2 : Нет
Коррекция смещения при чтении : 30
Способность читать области Lead-in и Lead-out : Да
Заполнение пропущенных сэмплов тишиной : Да
Удаление блоков с тишиной в начале и конце : Нет
При вычислениях CRC использовались нулевые сэмплы : Нет
Интерфейс : Установленный внешний ASPI-интерфейс
Выходной формат : Пользовательский кодировщик
Выбранный битрейт : 32 kBit/s
Качество : Высокий
Добавление ID3-тэга : Да
Утилита сжатия : C:\Program Files\AUDIO\Exact Audio Copy 099pb4\Flac\flac.exe
Дополнительные параметры : -6 -V -T "artist=%a" -T "title=%t" -T "album=%g" -T "date=%y" -T "tracknumber=%n" -T "genre=%m" -T "comment=EAC 0.99prebeta4 / FLAC 1.2.1 q6" %s
TOC извлечённого CD
Трек | Старт | Длительность | Начальный сектор | Конечный сектор
---------------------------------------------------------------------
1 | 0:00.00 | 6:01.22 | 0 | 27096
2 | 6:01.22 | 4:34.08 | 27097 | 47654
3 | 10:35.30 | 3:57.22 | 47655 | 65451
4 | 14:32.52 | 10:33.10 | 65452 | 112936
5 | 25:05.62 | 3:54.60 | 112937 | 130546
6 | 29:00.47 | 4:30.60 | 130547 | 150856
7 | 33:31.32 | 12:17.08 | 150857 | 206139
8 | 45:48.40 | 1:03.27 | 206140 | 210891
9 | 46:51.67 | 3:53.48 | 210892 | 228414
10 | 50:45.40 | 3:48.00 | 228415 | 245514
11 | 54:33.40 | 7:17.62 | 245515 | 278351
Характеристики диапазона извлечения и сообщения об ошибках
Выбранный диапазон
Имя файла D:\MY_Create\AC-DC_1992_(Collector's Edition)\CD2\AC-DC - Live (Collector's Edition) (Japanese SICP-1715) CD2.wav
Пиковый уровень 100.0 %
Качество диапазона 100.0 %
CRC копии 1C3317A2
Копирование... OK
Ошибок не произошло
Конец отчёта

Live (Japanese SICP-1716)

Tracklist:
01. Thunderstruck [0:06:35.17]
02. Shoot To Thrill [0:05:23.18]
03. Back In Black [0:04:28.00]
04. Who Made Who [0:05:16.17]
05. Heatseeker [0:03:37.03]
06. The Jack [0:06:57.62]
07. Moneytalks [0:04:19.15]
08. Hells Bells [0:06:01.15]
09. Dirty Deeds Done Dirt Cheap [0:05:02.56]
10. Whole Lotta Rosie [0:04:30.59]
11. You Shook Me All Night Long [0:03:54.65]
12. Highway To Hell [0:03:59.03]
13. T.N.T. [0:03:47.50]
14. For Those About To Rock (We Salute You) [0:07:17.48]

Log:

Exact Audio Copy V0.99 prebeta 4 from 23. January 2008
Отчёт EAC об извлечении, выполненном 27. мая 2008, 18:20
AC-DC / Live (Japanese SICP-1716)
Дисковод: PLEXTOR DVDR PX-716A Adapter: 3 ID: 0
Режим чтения : Достоверность
Использование точного потока : Да
Отключение кэша аудио : Да
Использование указателей C2 : Нет
Коррекция смещения при чтении : 30
Способность читать области Lead-in и Lead-out : Да
Заполнение пропущенных сэмплов тишиной : Да
Удаление блоков с тишиной в начале и конце : Нет
При вычислениях CRC использовались нулевые сэмплы : Нет
Интерфейс : Установленный внешний ASPI-интерфейс
Выходной формат : Пользовательский кодировщик
Выбранный битрейт : 32 kBit/s
Качество : Высокий
Добавление ID3-тэга : Да
Утилита сжатия : C:\Program Files\AUDIO\Exact Audio Copy 099pb4\Flac\flac.exe
Дополнительные параметры : -6 -V -T "artist=%a" -T "title=%t" -T "album=%g" -T "date=%y" -T "tracknumber=%n" -T "genre=%m" -T "comment=EAC 0.99prebeta4 / FLAC 1.2.1 q6" %s
TOC извлечённого CD
Трек | Старт | Длительность | Начальный сектор | Конечный сектор
---------------------------------------------------------------------
1 | 0:00.00 | 6:35.17 | 0 | 29641
2 | 6:35.17 | 5:23.18 | 29642 | 53884
3 | 11:58.35 | 4:28.00 | 53885 | 73984
4 | 16:26.35 | 5:16.17 | 73985 | 97701
5 | 21:42.52 | 3:37.03 | 97702 | 113979
6 | 25:19.55 | 6:57.62 | 113980 | 145316
7 | 32:17.42 | 4:19.15 | 145317 | 164756
8 | 36:36.57 | 6:01.15 | 164757 | 191846
9 | 42:37.72 | 5:02.56 | 191847 | 214552
10 | 47:40.53 | 4:30.59 | 214553 | 234861
11 | 52:11.37 | 3:54.65 | 234862 | 252476
12 | 56:06.27 | 3:59.03 | 252477 | 270404
13 | 60:05.30 | 3:47.50 | 270405 | 287479
14 | 63:53.05 | 7:17.48 | 287480 | 320302
Характеристики диапазона извлечения и сообщения об ошибках
Выбранный диапазон
Имя файла G:\CDImage\AC-DC_1992_Japanese\AC-DC - Live (Japanese SICP-1716).wav
Пиковый уровень 100.0 %
Качество диапазона 100.0 %
CRC копии 594A31BB
Копирование... OK
Ошибок не произошло
Конец отчёта

Ballbreaker (Japanese SICP-1717)

Tracklist:
01. Hard As A Rock [0:04:31.22]
02. Cover You In Oil [0:04:32.55]
03. The Furor [0:04:10.53]
04. Boogie Man [0:04:07.05]
05. The Honey Roll [0:05:34.72]
06. Burnin' Alive [0:05:05.30]
07. Hail Caesar [0:05:14.38]
08. Love Bomb [0:03:14.04]
09. Caught With You Pants Down [0:04:14.53]
10. Whiskey On The Rocks [0:04:35.03]
11. Ballbreaker [0:04:31.67]

Log:

Exact Audio Copy V0.99 prebeta 4 from 23. January 2008
Отчёт EAC об извлечении, выполненном 23. октября 2008, 19:39
AC-DC / Ballbreaker (Japanese SICP-1717)
Дисковод: PLEXTOR DVDR PX-716A Adapter: 3 ID: 0
Режим чтения : Достоверность
Использование точного потока : Да
Отключение кэша аудио : Да
Использование указателей C2 : Нет
Коррекция смещения при чтении : 30
Способность читать области Lead-in и Lead-out : Да
Заполнение пропущенных сэмплов тишиной : Да
Удаление блоков с тишиной в начале и конце : Нет
При вычислениях CRC использовались нулевые сэмплы : Нет
Интерфейс : Установленный внешний ASPI-интерфейс
Выходной формат : Пользовательский кодировщик
Выбранный битрейт : 32 kBit/s
Качество : Высокий
Добавление ID3-тэга : Да
Утилита сжатия : C:\Program Files\AUDIO\Exact Audio Copy 099pb4\Flac\flac.exe
Дополнительные параметры : -6 -V -T "artist=%a" -T "title=%t" -T "album=%g" -T "date=%y" -T "tracknumber=%n" -T "genre=%m" -T "comment=EAC 0.99prebeta4 / FLAC 1.2.1 q6" %s
TOC извлечённого CD
Трек | Старт | Длительность | Начальный сектор | Конечный сектор
---------------------------------------------------------------------
1 | 0:00.00 | 4:31.22 | 0 | 20346
2 | 4:31.22 | 4:32.55 | 20347 | 40801
3 | 9:04.02 | 4:10.53 | 40802 | 59604
4 | 13:14.55 | 4:07.05 | 59605 | 78134
5 | 17:21.60 | 5:34.72 | 78135 | 103256
6 | 22:56.57 | 5:05.30 | 103257 | 126161
7 | 28:02.12 | 5:14.38 | 126162 | 149749
8 | 33:16.50 | 3:14.04 | 149750 | 164303
9 | 36:30.54 | 4:14.53 | 164304 | 183406
10 | 40:45.32 | 4:35.03 | 183407 | 204034
11 | 45:20.35 | 4:31.67 | 204035 | 224426
Характеристики диапазона извлечения и сообщения об ошибках
Выбранный диапазон
Имя файла D:\MY_Create\AC-DC_95\AC-DC - Ballbreaker (Japanese SICP-1717).wav
Пиковый уровень 100.0 %
Качество диапазона 100.0 %
CRC копии B395C24D
Копирование... OK
Ошибок не произошло
Конец отчёта

Stiff Upper Lip (Japanese SICP-1718)

Tracklist:
01. Stiff Upper Lip [0:03:35.10]
02. Meltdown [0:03:41.25]
03. House Of Jazz [0:03:56.30]
04. Hold Me Back [0:03:59.10]
05. Safe In New York City [0:03:59.15]
06. Can't Stand Still [0:03:41.37]
07. Can't Stop Rock 'n' Roll [0:04:02.12]
08. Satellite Blues [0:03:46.51]
09. Damned [0:03:51.70]
10. Come And Get It [0:04:02.56]
11. All Screwed Up [0:04:36.44]
12. Give It Up [0:04:13.30]

Log:

Exact Audio Copy V0.99 prebeta 4 from 23. January 2008
Отчёт EAC об извлечении, выполненном 28. октября 2008, 13:26
AC-DC / Stiff Upper Lip (Japanese SICP-1718)
Дисковод: PLEXTOR DVDR PX-716A Adapter: 3 ID: 0
Режим чтения : Достоверность
Использование точного потока : Да
Отключение кэша аудио : Да
Использование указателей C2 : Нет
Коррекция смещения при чтении : 30
Способность читать области Lead-in и Lead-out : Да
Заполнение пропущенных сэмплов тишиной : Да
Удаление блоков с тишиной в начале и конце : Нет
При вычислениях CRC использовались нулевые сэмплы : Нет
Интерфейс : Установленный внешний ASPI-интерфейс
Выходной формат : Пользовательский кодировщик
Выбранный битрейт : 32 kBit/s
Качество : Высокий
Добавление ID3-тэга : Да
Утилита сжатия : C:\Program Files\AUDIO\Exact Audio Copy 099pb4\Flac\flac.exe
Дополнительные параметры : -6 -V -T "artist=%a" -T "title=%t" -T "album=%g" -T "date=%y" -T "tracknumber=%n" -T "genre=%m" -T "comment=EAC 0.99prebeta4 / FLAC 1.2.1 q6" %s
TOC извлечённого CD
Трек | Старт | Длительность | Начальный сектор | Конечный сектор
---------------------------------------------------------------------
1 | 0:00.00 | 3:35.10 | 0 | 16134
2 | 3:35.10 | 3:41.25 | 16135 | 32734
3 | 7:16.35 | 3:56.30 | 32735 | 50464
4 | 11:12.65 | 3:59.10 | 50465 | 68399
5 | 15:12.00 | 3:59.15 | 68400 | 86339
6 | 19:11.15 | 3:41.37 | 86340 | 102951
7 | 22:52.52 | 4:02.12 | 102952 | 121113
8 | 26:54.64 | 3:46.51 | 121114 | 138114
9 | 30:41.40 | 3:51.70 | 138115 | 155509
10 | 34:33.35 | 4:02.56 | 155510 | 173715
11 | 38:36.16 | 4:36.44 | 173716 | 194459
12 | 43:12.60 | 4:13.30 | 194460 | 213464
Характеристики диапазона извлечения и сообщения об ошибках
Выбранный диапазон
Имя файла D:\MY_Create\AC-DC_2000\AC-DC - Stiff Upper Lip (Japanese SICP-1718).wav
Пиковый уровень 100.0 %
Качество диапазона 100.0 %
CRC копии 71CA2125
Копирование... OK
Ошибок не произошло
Конец отчёта

Black Ice (Japanese SICP-2055) Digipack First Press

Tracklist:
01. Rock N Roll Train [0:04:21.38]
02. Skies On Fire [0:03:34.13]
03. Big Jack [0:03:57.05]
04. Anything Goes [0:03:22.12]
05. War Machine [0:03:09.59]
06. Smash N Grab [0:04:06.31]
07. Spoilin' For A Fight [0:03:17.06]
08. Wheels [0:03:28.37]
09. Decibel [0:03:33.66]
10. Stormy May Day [0:03:10.16]
11. She Likes Rock N Roll [0:03:52.70]
12. Money Made [0:04:15.35]
13. Rock N Roll Dream [0:04:40.68]
14. Rocking All The Way [0:03:22.37]
15. Black Ice [0:03:25.08]

Log:

Exact Audio Copy V0.99 prebeta 4 from 23. January 2008
Отчёт EAC об извлечении, выполненном 10. ноября 2008, 14:44
AC-DC / Black Ice (Japanese SICP-2055)
Дисковод: PLEXTOR DVDR PX-716A Adapter: 3 ID: 0
Режим чтения : Достоверность
Использование точного потока : Да
Отключение кэша аудио : Да
Использование указателей C2 : Нет
Коррекция смещения при чтении : 30
Способность читать области Lead-in и Lead-out : Да
Заполнение пропущенных сэмплов тишиной : Да
Удаление блоков с тишиной в начале и конце : Нет
При вычислениях CRC использовались нулевые сэмплы : Нет
Интерфейс : Установленный внешний ASPI-интерфейс
Выходной формат : Пользовательский кодировщик
Выбранный битрейт : 32 kBit/s
Качество : Высокий
Добавление ID3-тэга : Да
Утилита сжатия : C:\Program Files\AUDIO\Exact Audio Copy 099pb4\Flac\flac.exe
Дополнительные параметры : -6 -V -T "artist=%a" -T "title=%t" -T "album=%g" -T "date=%y" -T "tracknumber=%n" -T "genre=%m" -T "comment=EAC 0.99prebeta4 / FLAC 1.2.1 q6" %s
TOC извлечённого CD
Трек | Старт | Длительность | Начальный сектор | Конечный сектор
---------------------------------------------------------------------
1 | 0:00.00 | 4:21.38 | 0 | 19612
2 | 4:21.38 | 3:34.13 | 19613 | 35675
3 | 7:55.51 | 3:57.05 | 35676 | 53455
4 | 11:52.56 | 3:22.12 | 53456 | 68617
5 | 15:14.68 | 3:09.59 | 68618 | 82851
6 | 18:24.52 | 4:06.31 | 82852 | 101332
7 | 22:31.08 | 3:17.06 | 101333 | 116113
8 | 25:48.14 | 3:28.37 | 116114 | 131750
9 | 29:16.51 | 3:33.66 | 131751 | 147791
10 | 32:50.42 | 3:10.16 | 147792 | 162057
11 | 36:00.58 | 3:52.70 | 162058 | 179527
12 | 39:53.53 | 4:15.35 | 179528 | 198687
13 | 44:09.13 | 4:40.68 | 198688 | 219755
14 | 48:50.06 | 3:22.37 | 219756 | 234942
15 | 52:12.43 | 3:25.08 | 234943 | 250325
Характеристики диапазона извлечения и сообщения об ошибках
Выбранный диапазон
Имя файла D:\MY_Create\AC-DC_2008\AC-DC - Black Ice (Japanese SICP-2055).wav
Пиковый уровень 99.9 %
Качество диапазона 100.0 %
CRC копии 96D0EC7A
Копирование... OK
Ошибок не произошло
Конец отчёта
Доп. информация: Компакт-диски “Cardboard Sleeve” изготавливаются в Японии согласно лицензии.
Диск упакован в картонный конверт размером 135мм * 135мм. Это точная миниатюрная копия оригинального классического LP винила. Кроме того, диск копируется с оригинальной LP точностью и включает в себя буклеты с фотографиями, черно-белый аккуратно сложенный лист с аннотацией и текстами песен на японском и английском языке, эмблемы артистов, испол
Скачать

Скачать торрент! (Hard Rock) AC-DC 20CD (Japanese Press 2007-2008) [Cardboard Sleeve] [Limited Release] - 2008, FLAC (image + .cue), lossless

Как скачивать? · Что такое торрент? · Рейтинг и ограничения

Сайт не распространяет и не хранит электронные версии произведений, а лишь предоставляет доступ к создаваемому пользователями каталогу ссылок на торрент-файлы, которые содержат только списки хеш-сумм

загрузка...
[Профиль] [ЛС]

NEVOZMUTEM

Стаж: 5 лет 5 месяцев

Сообщений: 1

Пост Пост: #2 от 08-Авг-2015 23:46 (спустя 6 лет)

[Цитировать]

Спасибо за раздачу !!! bi bi bi
[Профиль] [ЛС]
Показать сообщения:    
Ответить на тему

Текущее время: Сегодня 23:45

Часовой пояс: GMT + 4



Вы не можете начинать темы
Вы не можете отвечать на сообщения
Вы не можете редактировать свои сообщения
Вы не можете удалять свои сообщения
Вы не можете голосовать в опросах
Вы не можете прикреплять файлы к сообщениям
Вы не можете скачивать файлы