Дом Хемингуэй / Dom Hemingway (Ричард Шепард / Richard Shepard) [2014, Великобритания, Криминал, Драма, WEB-DLRip] VO (qwerty) + Original Eng

Ответить на тему
 
Автор Сообщение

user ®

Стаж: 7 лет 7 месяцев

Сообщений: 20008

Пост Пост: #1 от 07-Апр-2014 20:45

[Цитировать]

Дом Хемингуэй / Dom Hemingway
Страна: Великобритания
Жанр: Криминал, Драма
Год выпуска: 2014
Продолжительность: 01:33:45
Перевод: Одноголосый закадровый (qwerty); переводчики: aleksavina, a747665, allallright, Inkantatem, La_Reine_Margot с ресурса Нотабеноид
Cубтитры: нет
Оригинальная аудиодорожка: английская
Режиссер: Ричард Шепард / Richard Shepard
В ролях: Джуд Лоу, Ричард Э. Грант, Демиан Бишир, Эмилия Кларк, Лука Франзони, Ричард Грэхэм, Джордж Суини, Марк Уингетт, Дэвид Бокэм, Ник Раггетт
Описание: Проведя 12 лет в тюрьме и выйдя на свободу, разбитной Дом Хемингуэй забирает свои деньги за несдачу подельников. Но оказывается, что в его жизни есть кое-что поважнее денег и веселой жизни
Доп. информация: Оригинальная 6 канальная английская дорожка идет дополнительным файлом
Сэмпл: http://sendfile.su/964777
Качество видео: WEB-DLRip
Формат видео: AVI
Видео: DivX; 720 х 304 (2,35); 1838 Кбит/сек; 24 кадра/сек; 0.35
Аудио: Русская дорожка, Ac-3 Dolby Digital; 48 КГц; 384 Кб; 6 каналов

MediaInfo

Формат : AVI
Формат/Информация : Audio Video Interleave
Размер файла : 1,46 Гбайт
Продолжительность : 1 ч. 33 м.
Общий поток : 2231 Кбит/сек
Программа кодирования : VirtualDubMod 1.5.10.3 (build 2550/release)
Библиотека кодирования : VirtualDubMod build 2550/release
Видео
Идентификатор : 0
Формат : MPEG-4 Visual
Профиль формата : Simple@L1
Параметр BVOP формата : Нет
Параметр QPel формата : Нет
Параметр GMC формата : Без точки перехода
Параметр матрицы формата : Default (H.263)
Идентификатор кодека : DX50
Идентификатор кодека/Подсказка : DivX 5
Продолжительность : 1 ч. 33 м.
Битрейт : 1838 Кбит/сек
Ширина : 720 пикселей
Высота : 304 пикселя
Соотношение сторон : 2,35:1
Частота кадров : 24,000 кадра/сек
Цветовое пространство : YUV
Субдискретизация насыщенности : 4:2:0
Битовая глубина : 8 бит
Тип развёртки : Прогрессивная
Метод сжатия : С потерями
Бит/(Пиксели*Кадры) : 0.350
Размер потока : 1,20 Гбайт (82%)
Библиотека кодирования : Lavc51.40.4
Аудио
Идентификатор : 1
Формат : AC-3
Формат/Информация : Audio Coding 3
Расширение режима : CM (complete main)
Параметр Endianness формата : Big
Идентификатор кодека : 2000
Продолжительность : 1 ч. 33 м.
Вид битрейта : Постоянный
Битрейт : 384 Кбит/сек
Каналы : 6 каналов
Расположение каналов : Front: L C R, Side: L R, LFE
Частота : 48,0 КГц
Битовая глубина : 16 бит
Метод сжатия : С потерями
Размер потока : 258 Мбайт (17%)
Выравнивание : Разделение по промежуткам
Продолжительность промежутка : 42 мс. (1,00 видеокадр)
Время предзагрузки промежутка : 500 мс.

Скриншот c названием фильма

Скриншоты

Скачать

Скачать торрент!

Как скачивать? · Что такое торрент? · Рейтинг и ограничения

Сайт не распространяет и не хранит электронные версии произведений, а лишь предоставляет доступ к создаваемому пользователями каталогу ссылок на торрент-файлы, которые содержат только списки хеш-сумм

[Профиль] [ЛС]
Показать сообщения:    
Ответить на тему

Текущее время: Сегодня 08:29

Часовой пояс: GMT + 4



Вы не можете начинать темы
Вы не можете отвечать на сообщения
Вы не можете редактировать свои сообщения
Вы не можете удалять свои сообщения
Вы не можете голосовать в опросах
Вы не можете прикреплять файлы к сообщениям
Вы не можете скачивать файлы