26-го февраля / Four Days of Snow and Blood (Хидео Гося / Hideo Gosha) [1989, Япония, Военный, исторический, драма, DVDRip] Sub Rus

Ответить на тему
 
Автор Сообщение

user ®

Стаж: 13 лет

Сообщений: 15071

Пост Пост: #1 от 15-Сен-2013 05:20

[Цитировать]

26-го февраля / Four Days of Snow and Blood
Страна: Япония
Жанр: Военный, исторический, драма
Год выпуска: 1989
Продолжительность: 01:53:19
Перевод: Субтитры
Cубтитры: русские (enoeno), английские
Оригинальная аудиодорожка: японский
Режиссер: Хидео Гося / Hideo Gosha
В ролях: Кеничи Хагивара, Томокацу Миура, Масахиро Мотоки, Кахо Минами, Наото Такенака
Описание: О мятеже националистически настроенных офицеров японской армии, произошедшем 26 - 29 февраля 1936 года.
Мятеж организовали молодые офицеры-националисты, которые были убеждены в том, что побороть в стране политическую коррупцию и крайнюю бедность в сельской местности можно лишь путём устранения нескольких высших политиков.
Путч начался рано утром 26 февраля 1936 года. Мятежникам удалось захватить центр Токио, включая здания парламента, министерства внутренних дел и министерства обороны, и убить нескольких влиятельных политических лидеров. Они также попытались захватить резиденцию премьер-министра и императорский дворец, но столкнулись с сопротивлением гвардии.
Несмотря на их заявления о полной поддержке императорской власти, император резко осудил их действия, признав их незаконными. Деморализованные мятежники сдались правительственным войскам 29 февраля 1936 года. 19 руководителей путча были казнены.
Доп. информация: Рип найден в сети. Перевод сделан с английских субтитров enoeno. Оригинальное японское название фильма - 二•二六 - Ni-ni-roku. Просьба к пользователям, знающим японский язык, написать личное сообщение и указать о возможных допущенных неточностях в субтитрах с целью их дальнейшего корректирования.
Сэмпл: http://multi-up.com/903478
Качество видео: DVDRip
Формат видео: AVI
Видео: XVID, 640x352, 1.36 Gb, 23,976 fps, 1777 Kbps
Аудио: MP3, 48.0 KHz, 192 Kbps, 2 channels
Формат субтитров: softsub (SRT)

Субтитры

7
00:00:56,489 --> 00:01:00,323
Чтобы показать, что Его Величество
в наших сердцах,
8
00:01:00,627 --> 00:01:03,960
чтобы искоренить коррупцию,
9
00:01:04,631 --> 00:01:09,864
построить новую Японию во имя его,
10
00:01:10,236 --> 00:01:11,294
вы согласны с этим, Андо?
11
00:01:11,538 --> 00:01:17,477
Я не хочу привлекать войска.
12
00:01:18,244 --> 00:01:19,734
Разве ты не видишь?
13
00:01:19,913 --> 00:01:21,676
Это для них.
14
00:01:21,915 --> 00:01:25,316
Мы скоро должны быть переведены в Маньчжурию.
15
00:01:25,652 --> 00:01:30,112
Так мы можем сохранить материк для Японии.
16
00:01:32,125 --> 00:01:35,925
Без поддержки наших войск
17
00:01:36,096 --> 00:01:40,032
это невыполнимая задача.

MediaInfo

Общее
Полное имя : 226cd1.avi
Формат : AVI
Формат/Информация : Audio Video Interleave
Размер файла : 701 Мбайт
Продолжительность : 49 м.
Общий поток : 1978 Кбит/сек
Программа кодирования : Nandub v1.0rc2
Библиотека кодирования : Nandub build 1852/release
Видео
Идентификатор : 0
Формат : MPEG-4 Visual
Профиль формата : Simple@L3
Параметр BVOP формата : Нет
Параметр QPel формата : Нет
Параметр GMC формата : Без точки перехода
Параметр матрицы формата : Default (H.263)
Идентификатор кодека : XVID
Идентификатор кодека/Подсказка : XviD
Продолжительность : 49 м.
Битрейт : 1777 Кбит/сек
Ширина : 640 пикселей
Высота : 352 пикселя
Соотношение сторон : 16:9
Частота кадров : 23,976 кадра/сек
Цветовое пространство : YUV
Субдискретизация насыщенности : 4:2:0
Битовая глубина : 8 бит
Тип развёртки : Прогрессивная
Метод сжатия : С потерями
Бит/(Пиксели*Кадры) : 0.329
Размер потока : 630 Мбайт (90%)
Библиотека кодирования : XviD 1.1.0 Beta2 (UTC 2005-04-04)
Аудио
Идентификатор : 1
Формат : AC-3
Формат/Информация : Audio Coding 3
Расширение режима : CM (complete main)
Параметр Endianness формата : Big
Идентификатор кодека : 2000
Продолжительность : 49 м.
Вид битрейта : Постоянный
Битрейт : 192 Кбит/сек
Каналы : 2 канала
Расположение каналов : Front: L R
Частота : 48,0 КГц
Битовая глубина : 16 бит
Метод сжатия : С потерями
Размер потока : 68,0 Мбайт (10%)
Выравнивание : Разделение по промежуткам
Продолжительность промежутка : 42 мс. (1,00 видеокадр)
Время предзагрузки промежутка : 500 мс.
Общее
Полное имя : 226cd2.avi
Формат : AVI
Формат/Информация : Audio Video Interleave
Размер файла : 700 Мбайт
Продолжительность : 1 ч. 3 м.
Общий поток : 1534 Кбит/сек
Программа кодирования : Nandub v1.0rc2
Библиотека кодирования : Nandub build 1852/release
Видео
Идентификатор : 0
Формат : MPEG-4 Visual
Профиль формата : Simple@L3
Параметр BVOP формата : Нет
Параметр QPel формата : Нет
Параметр GMC формата : Без точки перехода
Параметр матрицы формата : Default (H.263)
Идентификатор кодека : XVID
Идентификатор кодека/Подсказка : XviD
Продолжительность : 1 ч. 3 м.
Битрейт : 1333 Кбит/сек
Ширина : 640 пикселей
Высота : 352 пикселя
Соотношение сторон : 16:9
Частота кадров : 23,976 кадра/сек
Цветовое пространство : YUV
Субдискретизация насыщенности : 4:2:0
Битовая глубина : 8 бит
Тип развёртки : Прогрессивная
Метод сжатия : С потерями
Бит/(Пиксели*Кадры) : 0.247
Размер потока : 608 Мбайт (87%)
Библиотека кодирования : XviD 1.1.0 Beta2 (UTC 2005-04-04)
Аудио
Идентификатор : 1
Формат : AC-3
Формат/Информация : Audio Coding 3
Расширение режима : CM (complete main)
Параметр Endianness формата : Big
Идентификатор кодека : 2000
Продолжительность : 1 ч. 3 м.
Вид битрейта : Постоянный
Битрейт : 192 Кбит/сек
Каналы : 2 канала
Расположение каналов : Front: L R
Частота : 48,0 КГц
Битовая глубина : 16 бит
Метод сжатия : С потерями
Задержка видео : 13 мс.
Размер потока : 87,6 Мбайт (13%)
Выравнивание : Разделение по промежуткам
Продолжительность промежутка : 42 мс. (1,00 видеокадр)
Время предзагрузки промежутка : 500 мс.

Скриншот c названием фильма

Скриншоты

Скачать

Скачать торрент! 26-го февраля / Four Days of Snow and Blood (Хидео Гося / Hideo Gosha) [1989, Япония, Военный, исторический, драма, DVDRip] Sub Rus

Как скачивать? · Что такое торрент? · Рейтинг и ограничения

Сайт не распространяет и не хранит электронные версии произведений, а лишь предоставляет доступ к создаваемому пользователями каталогу ссылок на торрент-файлы, которые содержат только списки хеш-сумм

[Профиль] [ЛС]
Показать сообщения:    
Ответить на тему

Текущее время: Сегодня 18:24

Часовой пояс: GMT + 4



Вы не можете начинать темы
Вы не можете отвечать на сообщения
Вы не можете редактировать свои сообщения
Вы не можете удалять свои сообщения
Вы не можете голосовать в опросах
Вы не можете прикреплять файлы к сообщениям
Вы не можете скачивать файлы