Форсаж 6 / Furious 6 (Джастин Лин / Justin Lin) [2013, США, боевик, триллер, драма, криминал, BDRip] [Расширенная версия / Extended Cut] Dub + Original + subs (Full Pack)

Ответить на тему
 
Автор Сообщение

user ®

Стаж: 7 лет 7 месяцев

Сообщений: 20008

Пост Пост: #1 от 15-Сен-2013 02:10

[Цитировать]

Форсаж 6 / Furious 6- Год выпуска: 2013
Страна: США
Жанр: боевик, триллер, драма, криминал
Продолжительность: 02:11:02
Перевод: Профессиональный (полное дублирование) BD EUR
+ Оригинальная звуковая дорожка (отдельно)
Субтитры: Русские (forced, full), украинские (forced, full), английские (full, SDH, commentary) (внешние srt*) (спасибо Arifis)-Режиссер: Джастин Лин / Justin Lin
В ролях: Вин Дизель, Пол Уокер, Дуэйн Джонсон, Мишель Родригес, Люк Эванс, Тайриз Гибсон, Лудакрис, Санг Кенг, Галь Гадот, Джордана Брюстер, Джейсон Стэйтем
О фильме: После того как Доминик и Брайн побывали в Рио, где они ограбили и свергли империю вора в законе, их команда получила 100 миллионов, и наши герои оказались разбросаны по всему миру. Но их привычка вечно жить в бегах не даёт им покоя. Между тем, Хоббс отслеживал организацию смертельно опасных наёмников-водителей по двенадцати странам. Единственный способ остановить эту криминальную группу - это превзойти их на улицах, поэтому Хоббс просит Доминика собрать его элитную команду в Лондоне. За это он обещает полное помилование для Доминика и его друзей, чтобы они смогли наконец вернуться домой к своей семье.
Релиз:
Автор: kingsize87
Качество: BDRip (источник: / Blu-ray / 1080р)
Формат: AVI
Видео: 720x304 (2.37:1), 23,976 fps, XviD build 65 ~1926 kbps avg, 0.37 bit/pixel
Аудио #1: 48 kHz, AC3 Dolby Digital, 3/2 (L,C,R,l,r) + LFE ch, ~448.00 kbps avg
Аудио #2: 48 kHz, AC3 Dolby Digital, 3/2 (L,C,R,l,r) + LFE ch, ~448.00 kbps avg (отдельно)
Размер: 2231.97 Mb (1/2 DVD-R)
Скачать: Семпл- -

Mi


Формат : AVI
Формат/Информация : Audio Video Interleave
Профиль формата : OpenDML
Размер файла : 2,18 Гбайт
Продолжительность : 2 ч. 11 м.
Общий поток : 2381 Кбит/сек
Название фильма : Форсаж 6 / Furious 6 [Extended Cut] (2013) BDRip
Режиссёр : kingsize87
Программа кодирования : VirtualDubMod 1.5.10.2 (build 2542/release)
Правообладатель : HQCLUB
Примечание : 14.09.2013
Видео
Идентификатор : 0
Формат : MPEG-4 Visual
Профиль формата : Advanced Simple@L5
Параметр BVOP формата : 1
Параметр QPel формата : Нет
Параметр GMC формата : Без точки перехода
Параметр матрицы формата : Выборочная
Идентификатор кодека : XVID
Идентификатор кодека/Подсказка : XviD
Продолжительность : 2 ч. 11 м.
Битрейт : 1921 Кбит/сек
Ширина : 720 пикселей
Высота : 304 пикселя
Соотношение сторон : 2,35:1
Частота кадров : 23,976 кадра/сек
Цветовое пространство : YUV
Субдискретизация насыщенности : 4:2:0
Битовая глубина : 8 бит
Тип развёртки : Прогрессивная
Метод сжатия : С потерями
Бит/(Пиксели*Кадры) : 0.366
Размер потока : 1,76 Гбайт (81%)
Библиотека кодирования : XviD 65
Аудио
Идентификатор : 1
Формат : AC-3
Формат/Информация : Audio Coding 3
Расширение режима : CM (complete main)
Параметр Endianness формата : Big
Идентификатор кодека : 2000
Продолжительность : 2 ч. 11 м.
Вид битрейта : Постоянный
Битрейт : 448 Кбит/сек
Каналы : 6 каналов
Расположение каналов : Front: L C R, Side: L R, LFE
Частота : 48,0 КГц
Битовая глубина : 16 бит
Метод сжатия : С потерями
Размер потока : 420 Мбайт (19%)
Выравнивание : Разделение по промежуткам
Продолжительность промежутка : 42 мс. (1,00 видеокадр)
Время предзагрузки промежутка : 500 мс.
-
Скачать

Скачать торрент!

Как скачивать? · Что такое торрент? · Рейтинг и ограничения

Сайт не распространяет и не хранит электронные версии произведений, а лишь предоставляет доступ к создаваемому пользователями каталогу ссылок на торрент-файлы, которые содержат только списки хеш-сумм

[Профиль] [ЛС]
Показать сообщения:    
Ответить на тему

Текущее время: Сегодня 20:36

Часовой пояс: GMT + 4



Вы не можете начинать темы
Вы не можете отвечать на сообщения
Вы не можете редактировать свои сообщения
Вы не можете удалять свои сообщения
Вы не можете голосовать в опросах
Вы не можете прикреплять файлы к сообщениям
Вы не можете скачивать файлы