Инспектор полиции / Thanedaar (Радж Сиппи / Raj Sippy) [1990, Индия, Боевик, драма, криминал, DVDRip] MVO

Ответить на тему
 
Автор Сообщение

user ®

Стаж: 12 лет

Сообщений: 15092

Пост Пост: #1 от 14-Сен-2013 16:40

[Цитировать]

Инспектор полиции / Thanedaar
Страна: Индия
Жанр: Боевик, драма, криминал
Год выпуска: 1990
Продолжительность: 02:31:03
Перевод: Профессиональный (многоголосый, закадровый)
Cубтитры: нет
Оригинальная аудиодорожка: нет
Режиссер: Радж Сиппи / Raj Sippy
В ролях: Джитендра, Санджай Датт, Мадхури Дикшит, Джая Прада, Киран Кумар, Гога Капур, Сатиш Шах, Далип Тахил, Теж Сапру, Махеш Ананд, Пайнтал, Шарат Саксена, Хариш Патель, Виджу Хоте, Махавир Шах, Далип Тахил, Куника, Суббирадж, Према Нараян, Бина, Бирбал
Описание: Бриджеш и Авенаш росли без матери. И в один злополучный вечер их отца (комиссара полиции) убивают разбойники. Авенаш кидается к отцу, а Бриджеш берет нож и бежит за убийцей, надеясь отомстить. Больше Бриджеша никто не видел. Проходит много лет. Авенаш, как и отец, стал полицейским и имеет хорошую семью, но все еще не теряет надежды найти младшего брата. Где же он и что с ним стало?
Доп. информация:
Исходник: DVD5
Русский звук взят с VHS=>DVD5. (Киноспец) (Спасибо!)
Присутствует небольшой эпизод без перевода
Сведение звука: Vik555 (Спасибо!)
Рип: pca1962
Сэмпл: http://sendfile.su/867040
Качество видео: DVDRip
Формат видео: AVI
Видео: DivX, 640x320 23.97 fps, 1866 kbps
Аудио: AC3, 48 kHz, 2.0 (stereo), 192 kbps

MediaInfo

=== Общие ===
Полное имя : Inspektor.policii.1990.DVDRip.DivX.pca1962.avi
Формат : AVI
Описание формата : Audio Video Interleave
Профиль формата : OpenDML
Размер файла : 2.18 Гб
Длительность : 2ч 31мин
Общий битрейт : 2 070 кбит/сек
Програмное обеспечение : VirtualDubMod 1.5.10.3 | www.virtualdub-fr.org || (build 2550/release)
Кодирующая библиотека : VirtualDubMod build 2550/release
=== Видео ===
ID (Идентификатор) : 0
Формат : MPEG-4 Visual
Профиль формата : Advanced Simple@L5
Параметр 'BVOP' : 2
Параметр 'QPel' : Нет
Параметр 'GMC' : No warppoints
Параметр 'Matrix' : Default (MPEG)
Идентификатор кодека : DX50
Подпись кодека : DivX 5
Длительность : 2ч 31мин
Битрейт : 1866 кбит/сек
Ширина кадра : 640 пикселей
Высота кадра : 320 пикселей
Соотношение сторон : 2.000
Частота кадров : 23.976 кадров/сек
Цветовое пространство : YUV
Субдискретизация насыщенности : 4:2:0
Глубина (разрядность) : 8 bits
Тип развертки : Прогрессивная
Режим сжатия : С потерями
Бит/(пиксель*кадр) : 0.380
Размер потока : 1.97 Гб (90%)
Кодирующая библиотека : XviD 1.2.1 (UTC 2008-12-04)
=== Аудио ===
ID (Идентификатор) : 1
Формат : AC-3
Описание формата : Audio Coding 3
Mode extension : CM (complete main)
Идентификатор кодека : 2000
Длительность : 2ч 31мин
Тип битрейта : Постоянный
Битрейт : 192 кбит/сек
Канал(ы) : 2 каналов
Расположение каналов : Front: L R
Частота дискретизации : 48.0 кГц
Глубина (разрядность) : 16 bits
Режим сжатия : С потерями
Размер потока : 207 Мб (9%)
Расположение потока : Split accross interleaves
Период чередования : 42 мс (1.00 video frame)
Предварительная загрузка : 500 мс

Скриншот c названием фильма

Скачать

Скачать торрент! Инспектор полиции / Thanedaar (Радж Сиппи / Raj Sippy) [1990, Индия, Боевик, драма, криминал, DVDRip] MVO

Как скачивать? · Что такое торрент? · Рейтинг и ограничения

Сайт не распространяет и не хранит электронные версии произведений, а лишь предоставляет доступ к создаваемому пользователями каталогу ссылок на торрент-файлы, которые содержат только списки хеш-сумм

[Профиль] [ЛС]
Показать сообщения:    
Ответить на тему

Текущее время: Сегодня 19:44

Часовой пояс: GMT + 4



Вы не можете начинать темы
Вы не можете отвечать на сообщения
Вы не можете редактировать свои сообщения
Вы не можете удалять свои сообщения
Вы не можете голосовать в опросах
Вы не можете прикреплять файлы к сообщениям
Вы не можете скачивать файлы