В оковах весны / Aastha: In the Prison of Spring (Басу Бхаттачария / Basu Bhattacharya) [1997, Индия, Драма, DVDRip] MVO

Ответить на тему
 
Автор Сообщение

user ®

Стаж: 12 лет

Сообщений: 15124

Пост Пост: #1 от 14-Сен-2013 13:30

[Цитировать]

В оковах весны / Aastha: In the Prison of Spring Страна: Индия
Жанр: Драма
Год выпуска: 1997
Продолжительность: 02:00:43
Перевод: Любительский (многоголосый закадровый)
Роли озвучивали: joyjoyjoy (raaj), Vasantsena и Елена Захарченкова
Cубтитры: нет
Режиссер: Басу Бхаттачария / Basu Bhattacharya
В ролях: Рекха, Ом Пури, Динеш Тхакур, Aнвеша Бхаттачария, Сагар Эрийа, Дэйзи Ирани, Навин Нисчол, Шрути Патель, Ишита Манджрекар и др..
Описание: Манси и Амар женаты много лет, у них есть дочь. Амар весь день занят на работе, в то время как Манси занимается хозяйством и воспитанием дочери. У Амара стабильный доход, который позволяет семье жить комфортно, но без излишеств. Однажды, покупая кроссовки своей дочери, Манси понимает, что денег на покупку ей не хватит, и хочет покинуть магазин, не приобретая их. Другой покупатель - женщина по имени Рина, предлагает оплатить обувь. Манси неохотно принимает предложение Рины, не догадываясь, что Рина оплатила покупку, имея тайный умысел завлечь Манси в новый мир, в свой мир, и изменить ее жизнь навсегда.
Фильм рассматривается, как своего рода продолжение известной трилогии о семейных неурядицах, которую Басу Бхаттачария снял в 70-х годах - Anubhav (1971), Avishkaar (1973) и Griha Pravesh (1979). Aastha стал последним фильмом режиссера и здесь он концентрируется на том, как влияют материалистические веяния 90-х на современную городскую семью и исследует быстро изменяющиеся моральные устои людей.

Перевод, редакция, рип и синхронизация аудио: Vasantsena
Доп. информация: На всех песнях, кроме последней, звук из саундтрека.
Рецензия на фильм (автор - Remita): http://www.kinopoisk.ru/level/79/user/1055180/comment/823130/
Качество видео: DVDRip
Формат видео: AVI
Видео: DivX 640x480 23.976fps 1307Kbps
Аудио: AC3, stereo, 192 Кбит/с, 48,0 КГц
Запрещено использование релиза в коммерческих целях, а также использование звуковой дорожки без согласия автора.

MediaInfo

Complete name : E:\Aastha.avi
Format : AVI
Format/Info : Audio Video Interleave
File size : 1.27 GiB
Duration : 2h 0mn
Overall bit rate : 1 509 Kbps
Writing application : VirtualDubMod 1.5.10.2 (build 2540/release)
Writing library : VirtualDubMod build 2540/release
Video
ID : 0
Format : MPEG-4 Visual
Format profile : Advanced Simple@L5
Format settings, BVOP : 1
Format settings, QPel : No
Format settings, GMC : No warppoints
Format settings, Matrix : Default (MPEG)
Codec ID : DX50
Codec ID/Hint : DivX 5
Duration : 2h 0mn
Bit rate : 1 307 Kbps
Width : 640 pixels
Height : 480 pixels
Display aspect ratio : 4:3
Frame rate : 23.976 fps
Color space : YUV
Chroma subsampling : 4:2:0
Bit depth : 8 bits
Scan type : Progressive
Compression mode : Lossy
Bits/(Pixel*Frame) : 0.178
Stream size : 1.10 GiB (87%)
Writing library : XviD 1.2.1 (UTC 2008-12-04)
Audio
ID : 1
Format : AC-3
Format/Info : Audio Coding 3
Mode extension : CM (complete main)
Codec ID : 2000
Duration : 2h 0mn
Bit rate mode : Constant
Bit rate : 192 Kbps
Channel(s) : 2 channels
Channel positions : Front: L R
Sampling rate : 48.0 KHz
Bit depth : 16 bits
Compression mode : Lossy
Stream size : 166 MiB (13%)
Alignment : Split accross interleaves
Interleave, duration : 42 ms (1.00 video frame)
Interleave, preload duration : 500 ms

Скриншот c названием фильма

Скачать

Скачать торрент! В оковах весны / Aastha: In the Prison of Spring (Басу Бхаттачария / Basu Bhattacharya) [1997, Индия, Драма, DVDRip] MVO

Как скачивать? · Что такое торрент? · Рейтинг и ограничения

Сайт не распространяет и не хранит электронные версии произведений, а лишь предоставляет доступ к создаваемому пользователями каталогу ссылок на торрент-файлы, которые содержат только списки хеш-сумм

[Профиль] [ЛС]

abbasmemon

Стаж: 5 лет 8 месяцев

Сообщений: 4

Пост Пост: #2 от 10-Сен-2015 09:15 (спустя 1 год 11 месяцев)

[Цитировать]

Great Sharing
[Профиль] [ЛС]
Показать сообщения:    
Ответить на тему

Текущее время: Сегодня 21:35

Часовой пояс: GMT + 4



Вы не можете начинать темы
Вы не можете отвечать на сообщения
Вы не можете редактировать свои сообщения
Вы не можете удалять свои сообщения
Вы не можете голосовать в опросах
Вы не можете прикреплять файлы к сообщениям
Вы не можете скачивать файлы