Восток / The East (Зал Батманглидж / Zal Batmanglij) [2013, США, Великобритания, триллер, BDRip 720p] DVO (Александр Нелюбин, Ирина Грачева) + Sub Eng + Original Eng

Ответить на тему
 
Автор Сообщение

user ®

Стаж: 7 лет 7 месяцев

Сообщений: 20008

Пост Пост: #1 от 14-Сен-2013 10:20

[Цитировать]

Восток / The East
Страна: США, Великобритания
Жанр: триллер
Год выпуска: 2013
Продолжительность: 01:56:08
Перевод: Любительский (двухголосый закадровый) Александр Нелюбин, Ирина Грачева
Cубтитры: английские [SDH]
Оригинальная аудиодорожка: английский
-
Режиссер: Зал Батманглидж / Zal Batmanglij
В ролях: Брит Марлинг, Александр Скарсгард, Эллен Пейдж, Тоби Кеббелл, Шайло Фернандес, Элдис Ходж, Даниэль МакДональд, Хиллари Бак, Патришия Кларксон, Джейсон Риттер
-
Описание: «Восток» — название группировки экологических террористов, пытающейся отомстить аморальным корпорациям. Представительница спецслужб должна проникнуть в группировку.

Тип релиза: BDRip 720p
Контейнер: MKV
Видео: H264 / NTSC 16:9 / 1280x544 (2,35:1) / 4768 kbps / 23,976 fps / 0.286 bit/pixel / High@L4.1
Аудио 1: Russian / AC3 / 48 kHz / 5.1 Ch / 448 kbps / 16 bit / DVO
Аудио 2: English / DTS / 48 kHz / 5.1 Ch / 1510 kbps / 24 bit / Original
Формат субтитров: softsub (SRT)
Навигация по главам: есть

log

x264 [info]: frame I:1464 Avg QP:14.10 size:104145
x264 [info]: frame P:32901 Avg QP:15.75 size: 48164
x264 [info]: frame B:132700 Avg QP:17.31 size: 19087
x264 [info]: consecutive B-frames: 1.7% 1.7% 5.7% 11.4% 15.1% 49.7% 7.7% 2.4% 4.4%

MediaInfo

Общее
Уникальный идентификатор : 231363512648300851452550860959728110887 (0xAE0EFDE05D99AA1DA1357ED857A98D27)
Полное имя : W:\BDRip 720p\The East.2013.BDRip.720p.mkv
Формат : Matroska
Версия формата : Version 4 / Version 2
Размер файла : 5,57 Гбайт
Продолжительность : 1 ч. 56 м.
Общий поток : 6862 Кбит/сек
Дата кодирования : UTC 2013-09-13 00:50:09
Программа кодирования : mkvmerge v6.3.0 ('You can't stop me!') built on Jun 28 2013 20:09:41
Библиотека кодирования : libebml v1.3.0 + libmatroska v1.4.0
Видео
Идентификатор : 1
Формат : AVC
Формат/Информация : Advanced Video Codec
Профиль формата : High@L4.1
Параметр CABAC формата : Да
Параметр ReFrames формата : 12 кадров
Идентификатор кодека : V_MPEG4/ISO/AVC
Продолжительность : 1 ч. 56 м.
Битрейт : 4768 Кбит/сек
Ширина : 1280 пикселей
Высота : 544 пикселя
Соотношение сторон : 2,35:1
Режим частоты кадров : Постоянный
Частота кадров : 23,976 кадра/сек
Цветовое пространство : YUV
Субдискретизация насыщенности : 4:2:0
Битовая глубина : 8 бит
Тип развёртки : Прогрессивная
Бит/(Пиксели*Кадры) : 0.286
Размер потока : 3,87 Гбайт (69%)
Библиотека кодирования : x264 core 138 r2358 9e941d1
Настройки программы : cabac=1 / ref=12 / deblock=1:-3:-3 / analyse=0x3:0x113 / me=umh / subme=11 / psy=1 / psy_rd=1.00:0.00 / mixed_ref=1 / me_range=32 / chroma_me=1 / trellis=2 / 8x8dct=1 / cqm=0 / deadzone=21,11 / fast_pskip=0 / chroma_qp_offset=-2 / threads=12 / lookahead_threads=2 / sliced_threads=0 / nr=0 / decimate=0 / interlaced=0 / bluray_compat=0 / constrained_intra=0 / bframes=8 / b_pyramid=2 / b_adapt=2 / b_bias=0 / direct=3 / weightb=1 / open_gop=0 / weightp=2 / keyint=250 / keyint_min=24 / scenecut=40 / intra_refresh=0 / rc_lookahead=40 / rc=crf / mbtree=0 / crf=17.8 / qcomp=0.65 / qpmin=0 / qpmax=69 / qpstep=4 / vbv_maxrate=38000 / vbv_bufsize=30000 / crf_max=0.0 / nal_hrd=none / ip_ratio=1.40 / pb_ratio=1.30 / aq=1:1.10
Язык : English
Default : Да
Forced : Нет
Аудио #1
Идентификатор : 2
Формат : AC-3
Формат/Информация : Audio Coding 3
Расширение режима : CM (complete main)
Параметр Endianness формата : Big
Идентификатор кодека : A_AC3
Продолжительность : 1 ч. 56 м.
Вид битрейта : Постоянный
Битрейт : 448 Кбит/сек
Каналы : 6 каналов
Расположение каналов : Front: L C R, Side: L R, LFE
Частота : 48,0 КГц
Битовая глубина : 16 бит
Метод сжатия : С потерями
Размер потока : 372 Мбайт (7%)
Заголовок : DVO
Язык : Russian
Default : Да
Forced : Нет
Аудио #2
Идентификатор : 3
Формат : DTS
Формат/Информация : Digital Theater Systems
Режим : 16
Параметр Endianness формата : Big
Идентификатор кодека : A_DTS
Продолжительность : 1 ч. 56 м.
Вид битрейта : Постоянный
Битрейт : 1509 Кбит/сек
Каналы : 6 каналов
Расположение каналов : Front: L C R, Side: L R, LFE
Частота : 48,0 КГц
Битовая глубина : 24 бит
Метод сжатия : С потерями
Размер потока : 1,22 Гбайт (22%)
Заголовок : Original
Язык : English
Default : Нет
Forced : Нет
Текст
Идентификатор : 4
Формат : UTF-8
Идентификатор кодека : S_TEXT/UTF8
Идентификатор кодека/Информация : UTF-8 Plain Text
Заголовок : Original
Язык : English
Default : Нет
Forced : Нет
Меню
00:00:00.000 : en:00:00:00.000
00:02:10.088 : en:00:02:10.088
00:06:41.568 : en:00:06:41.568
00:09:34.365 : en:00:09:34.365
00:12:00.553 : en:00:12:00.553
00:14:17.315 : en:00:14:17.315
00:18:11.924 : en:00:18:11.924
00:22:01.737 : en:00:22:01.737
00:26:29.254 : en:00:26:29.254
00:28:41.845 : en:00:28:41.845
00:31:14.873 : en:00:31:14.873
00:35:06.479 : en:00:35:06.479
00:39:20.358 : en:00:39:20.358
00:45:40.112 : en:00:45:40.112
00:47:18.753 : en:00:47:18.753
00:50:39.286 : en:00:50:39.286
00:52:36.904 : en:00:52:36.904
00:56:18.458 : en:00:56:18.458
01:00:59.698 : en:01:00:59.698
01:05:50.947 : en:01:05:50.947
01:10:32.603 : en:01:10:32.603
01:12:03.236 : en:01:12:03.236
01:14:40.267 : en:01:14:40.267
01:19:24.218 : en:01:19:24.218
01:23:11.862 : en:01:23:11.862
01:27:02.467 : en:01:27:02.467
01:29:36.580 : en:01:29:36.580
01:32:01.391 : en:01:32:01.391
01:35:03.698 : en:01:35:03.698
01:38:10.885 : en:01:38:10.885
01:40:42.745 : en:01:40:42.745
01:43:14.772 : en:01:43:14.772
01:45:04.590 : en:01:45:04.590
01:48:00.974 : en:01:48:00.974
01:49:59.718 : en:01:49:59.718
01:51:27.222 : en:01:51:27.222

Скриншоты

Скачать

Скачать торрент!

Как скачивать? · Что такое торрент? · Рейтинг и ограничения

Сайт не распространяет и не хранит электронные версии произведений, а лишь предоставляет доступ к создаваемому пользователями каталогу ссылок на торрент-файлы, которые содержат только списки хеш-сумм

[Профиль] [ЛС]
Показать сообщения:    
Ответить на тему

Текущее время: Сегодня 04:16

Часовой пояс: GMT + 4



Вы не можете начинать темы
Вы не можете отвечать на сообщения
Вы не можете редактировать свои сообщения
Вы не можете удалять свои сообщения
Вы не можете голосовать в опросах
Вы не можете прикреплять файлы к сообщениям
Вы не можете скачивать файлы