Единственный выстрел / A Single Shot (Дэвид М. Розенталь / David M. Rosenthal) [2013, Великобритания, США, Канада, триллер, драма, WEB-DLRip] VO (Max Nabokov)

Ответить на тему
 
Автор Сообщение

user ®

Стаж: 7 лет 7 месяцев

Сообщений: 20008

Пост Пост: #1 от 14-Сен-2013 00:50

[Цитировать]

Единственный выстрел / A Single Shot
Страна: Великобритания, США, Канада
Жанр: триллер, драма
Год выпуска: 2013
Продолжительность: 01:55:45
Перевод: Одноголосый закадровый (Max Nabokov)
Cубтитры: нет
Оригинальная аудиодорожка: нет
Режиссер: Дэвид М. Розенталь / David M. Rosenthal
В ролях: Сэм Рокуэлл, Джеффри Райт, Келли Райлли, Джейсон Айзекс, Уильям Х. Мэйси, Тед Левайн, Джо Андерсон, Офелия Ловибонд, Мелисса Лео, Эми Слоун
Описание: История о том, как Джон Мун пошел охотиться на оленя и случайно застрелил молодую женщину, у которой затем нашел большую сумму денег. И в итоге паническое сокрытие несчастного случая превратилось в бесконечный кошмар.


Сэмпл: http://multi-up.com/903072
Качество видео: WEB-DLRip (Исх. WEB-DLRip[720p])
Формат видео: AVI
Видео: 640x264 (2.42:1), 23.976 fps, XviD build 50 ~762 kbps avg, 0.19 bit/pixel
Аудио: 48 kHz, MPEG Layer 3, 2 ch, ~128.00 kbps avg

MediaInfo

Общее
Полное имя : S:\Фильмы\Единственный выстрел. 2013. WEB-DLRip (AleksSin).avi
Формат : AVI
Формат/Информация : Audio Video Interleave
Размер файла : 745 Мбайт
Продолжительность : 1 ч. 55 м.
Общий поток : 899 Кбит/сек
Программа кодирования : VirtualDubMod 1.5.10.3 | www.virtualdub-fr.org || (build 2550/release)
Библиотека кодирования : VirtualDubMod build 2550/release
Видео
Идентификатор : 0
Формат : MPEG-4 Visual
Профиль формата : Advanced Simple@L5
Параметр BVOP формата : 2
Параметр QPel формата : Нет
Параметр GMC формата : Без точки перехода
Параметр матрицы формата : Default (H.263)
Идентификатор кодека : XVID
Идентификатор кодека/Подсказка : XviD
Продолжительность : 1 ч. 55 м.
Битрейт : 762 Кбит/сек
Ширина : 640 пикс.
Высота : 264 пикс.
Соотношение сторон : 2,40:1
Частота кадров : 23,976 кадр/сек
Цветовое пространство : YUV
Подвыборка цветности : 4:2:0
Битовая глубина : 8 бит
Тип развёртки : Прогрессивная
Метод сжатия : С потерями
Бит/(Пиксели*Кадры) : 0.188
Размер потока : 631 Мбайт (85%)
Библиотека кодирования : XviD 1.2.1 (UTC 2008-12-04)
Аудио
Идентификатор : 1
Формат : MPEG Audio
Версия формата : Version 1
Профиль формата : Layer 3
Идентификатор кодека : 55
Идентификатор кодека/Подсказка : MP3
Продолжительность : 1 ч. 55 м.
Вид битрейта : Постоянный
Битрейт : 128 Кбит/сек
Каналы : 2 канала
Частота : 48,0 КГц
Метод сжатия : С потерями
Размер потока : 106 Мбайт (14%)
Выравнивание : Соединение по промежуткам
Продолжительность промежутка : 42 мс. (1,00 видеокадр)
Время предзагрузки промежутка : 504 ms
Библиотека кодирования : LAME3.99r
Настройки программы : -m s -V 4 -q 2 -lowpass 17 -b 128

Скриншот c названием фильма

Скриншоты

Скачать

Скачать торрент!

Как скачивать? · Что такое торрент? · Рейтинг и ограничения

Сайт не распространяет и не хранит электронные версии произведений, а лишь предоставляет доступ к создаваемому пользователями каталогу ссылок на торрент-файлы, которые содержат только списки хеш-сумм

[Профиль] [ЛС]
Показать сообщения:    
Ответить на тему

Текущее время: Сегодня 04:51

Часовой пояс: GMT + 4



Вы не можете начинать темы
Вы не можете отвечать на сообщения
Вы не можете редактировать свои сообщения
Вы не можете удалять свои сообщения
Вы не можете голосовать в опросах
Вы не можете прикреплять файлы к сообщениям
Вы не можете скачивать файлы