Камень (Вячеслав Каминский) [2011, Россия, триллер, HDRip-AVC]

Ответить на тему
 
Автор Сообщение

user ®

Стаж: 7 лет 7 месяцев

Сообщений: 20008

Пост Пост: #1 от 13-Сен-2013 21:40

[Цитировать]

Камень-
Жанр: триллер
Год выпуска: 2011
Продолжительность: 01:24:49
Режиссер: Вячеслав Каминский
В ролях: Сергей Светлаков, Олеся Судзиловская, Николай Козак, Елена Коренева, Валда Бичкуте, Александр Колесников
Описание: Когда у известного бизнесмена похищают 7-летнего сына, он еще не представляет, какое испытание его ждет. Оказывается, таинственному похитителю не нужен никакой выкуп, и у него единственное требование к отцу. В течение следующих суток тот должен решить, кто умрет из них двоих: его ребенок, или он сам…- -Качество видео: HDRip-AVC
Формат видео: MKV
Видео: 944x400 (2:35:1), 25 fps, H264, 2 007 Kbps, 0.213 bit/pixel
Аудио: 48 kHz, AC3 Dolby Digital, 3/2 (L,C,R,l,r) + LFE ch, ~448 kbps-Раздача от: -

Скриншоты

MI

D:\Мои рипы\Kamen.2011.HDRip-AVC.dexter_lex.mkv
General
Unique ID : 214278167613134853676070432319243562211 (0xA13479545BBD396C95560ECC96682CE3)
Complete name : D:\Мои рипы\Kamen.2011.HDRip-AVC.dexter_lex.mkv
Format : Matroska
Format version : Version 2
File size : 1.45 GiB
Duration : 1h 24mn
Overall bit rate : 2 456 Kbps
Encoded date : UTC 2013-09-13 01:35:05
Writing application : mkvmerge v6.1.0 ('Old Devil') built on Mar 4 2013 09:10:42
Writing library : libebml v1.3.0 + libmatroska v1.4.0
Video #1
ID : 1
Format : AVC
Format/Info : Advanced Video Codec
Format profile : High@L4.1
Format settings, CABAC : Yes
Format settings, ReFrames : 11 frames
Codec ID : V_MPEG4/ISO/AVC
Duration : 1h 24mn
Bit rate : 2 007 Kbps
Width : 944 pixels
Height : 400 pixels
Display aspect ratio : 2.35:1
Frame rate : 25.000 fps
Color space : YUV
Chroma subsampling : 4:2:0
Bit depth : 8 bits
Scan type : Progressive
Bits/(Pixel*Frame) : 0.213
Stream size : 1.16 GiB (80%)
Writing library : x264 core 130 r2273 b3065e6
Encoding settings : cabac=1 / ref=11 / deblock=1:-2:-2 / analyse=0x3:0x113 / me=umh / subme=10 / psy=1 / psy_rd=1.00:0.15 / mixed_ref=1 / me_range=32 / chroma_me=1 / trellis=2 / 8x8dct=1 / cqm=0 / deadzone=21,11 / fast_pskip=0 / chroma_qp_offset=-3 / threads=6 / lookahead_threads=1 / sliced_threads=0 / nr=0 / decimate=1 / interlaced=0 / bluray_compat=0 / constrained_intra=0 / bframes=10 / b_pyramid=2 / b_adapt=2 / b_bias=0 / direct=3 / weightb=1 / open_gop=0 / weightp=2 / keyint=250 / keyint_min=25 / scenecut=40 / intra_refresh=0 / rc_lookahead=60 / rc=2pass / mbtree=1 / bitrate=2007 / ratetol=1.0 / qcomp=0.60 / qpmin=0 / qpmax=69 / qpstep=4 / cplxblur=20.0 / qblur=0.5 / ip_ratio=1.40 / aq=1:1.00
Default : Yes
Forced : No
Audio #2
ID : 2
Format : AC-3
Format/Info : Audio Coding 3
Mode extension : CM (complete main)
Codec ID : A_AC3
Duration : 1h 24mn
Bit rate mode : Constant
Bit rate : 448 Kbps
Channel(s) : 6 channels
Channel positions : Front: L C R, Side: L R, LFE
Sampling rate : 48.0 KHz
Bit depth : 16 bits
Compression mode : Lossy
Stream size : 272 MiB (18%)
Default : Yes
Forced : No
Скачать

Скачать торрент!

Как скачивать? · Что такое торрент? · Рейтинг и ограничения

Сайт не распространяет и не хранит электронные версии произведений, а лишь предоставляет доступ к создаваемому пользователями каталогу ссылок на торрент-файлы, которые содержат только списки хеш-сумм

[Профиль] [ЛС]
Показать сообщения:    
Ответить на тему

Текущее время: Сегодня 20:40

Часовой пояс: GMT + 4



Вы не можете начинать темы
Вы не можете отвечать на сообщения
Вы не можете редактировать свои сообщения
Вы не можете удалять свои сообщения
Вы не можете голосовать в опросах
Вы не можете прикреплять файлы к сообщениям
Вы не можете скачивать файлы