Великан с топором: гнев Пола Баньяна / Axe Giant: The Wrath of Paul Bunyan (Гэри Джонс / Gary Jones) [2013, США, ужасы, фэнтези, WEB-DLRip] VO (den904) + Original Eng

Ответить на тему
 
Автор Сообщение

user ®

Стаж: 7 лет 7 месяцев

Сообщений: 20008

Пост Пост: #1 от 13-Сен-2013 18:30

[Цитировать]

Великан с топором: гнев Пола Баньяна / Axe Giant: The Wrath of Paul Bunyan
Страна: США
Жанр: ужасы, фэнтези
Год выпуска: 2013
Продолжительность: 01:30:00
Перевод: Одноголосый закадровый den904 по субтитрам Antonio
Cубтитры: нет
Оригинальная аудиодорожка: английский
Режиссер: Гэри Джонс / Gary Jones
В ролях: Джо Эстевез, Дэн Хэггерти, Томас Дауни, Эмбер Коннор, Тим Лавлэйс, Джесси Коув, Кристина Копф, Джилл Эвин, Клифф Уильямс
Описание: Подростки с вожатым отправляются в поход. В лесу они находят огромные человеческие следы и сразу вспоминают легенду о гигантском лесорубе Поле Баньяне, который, якобы, скрывается от людей в местных трущобах. Легенда оказалась явью и вот уже ребята, визжа от ужаса, улепётывают от чудовища…

Сэмпл: http://multi-up.com/902961
Качество видео: WEB-DLRip
Формат видео: AVI
Видео: Xvid 720x400 23.98fps 1718Kbps
Аудио 1: Dolby AC3 48000Hz stereo 192Kbps [русский]
Аудио 2: Dolby AC3 48000Hz 6 Audio Channel 448Kbps [английский]

MediaInfo

General
Complete name : D:\TORRENTS\Великан с топором. Гнев Пола Баньяна.avi
Format : AVI
Format/Info : Audio Video Interleave
File size : 1.49 GiB
Duration : 1h 30mn
Overall bit rate : 2 376 Kbps
Video
ID : 0
Format : MPEG-4 Visual
Format profile : Advanced Simple@L5
Format settings, BVOP : 1
Format settings, QPel : No
Format settings, GMC : No warppoints
Format settings, Matrix : Default (H.263)
Codec ID : XVID
Codec ID/Hint : XviD
Duration : 1h 30mn
Bit rate : 1 719 Kbps
Width : 720 pixels
Height : 400 pixels
Display aspect ratio : 16:9
Frame rate : 23.976 fps
Color space : YUV
Chroma subsampling : 4:2:0
Bit depth : 8 bits
Scan type : Progressive
Compression mode : Lossy
Bits/(Pixel*Frame) : 0.249
Stream size : 1.08 GiB (72%)
Writing library : XviD 1.2.1 (UTC 2008-12-04)
Audio #1
ID : 1
Format : AC-3
Format/Info : Audio Coding 3
Mode extension : CM (complete main)
Format settings, Endianness : Big
Codec ID : 2000
Duration : 1h 30mn
Bit rate mode : Constant
Bit rate : 192 Kbps
Channel(s) : 2 channels
Channel positions : Front: L R
Sampling rate : 48.0 KHz
Bit depth : 16 bits
Compression mode : Lossy
Stream size : 124 MiB (8%)
Alignment : Aligned on interleaves
Interleave, duration : 32 ms (0.77 video frame)
Audio #2
ID : 2
Format : AC-3
Format/Info : Audio Coding 3
Mode extension : CM (complete main)
Format settings, Endianness : Big
Codec ID : 2000
Duration : 1h 30mn
Bit rate mode : Constant
Bit rate : 448 Kbps
Channel(s) : 6 channels
Channel positions : Front: L C R, Side: L R, LFE
Sampling rate : 48.0 KHz
Bit depth : 16 bits
Compression mode : Lossy
Stream size : 288 MiB (19%)
Alignment : Aligned on interleaves
Interleave, duration : 32 ms (0.77 video frame)

Скриншот c названием фильма

Скриншоты

Скачать

Скачать торрент!

Как скачивать? · Что такое торрент? · Рейтинг и ограничения

Сайт не распространяет и не хранит электронные версии произведений, а лишь предоставляет доступ к создаваемому пользователями каталогу ссылок на торрент-файлы, которые содержат только списки хеш-сумм

[Профиль] [ЛС]
Показать сообщения:    
Ответить на тему

Текущее время: Сегодня 16:27

Часовой пояс: GMT + 4



Вы не можете начинать темы
Вы не можете отвечать на сообщения
Вы не можете редактировать свои сообщения
Вы не можете удалять свои сообщения
Вы не можете голосовать в опросах
Вы не можете прикреплять файлы к сообщениям
Вы не можете скачивать файлы