Претендент / The Contender (Род Лури / Rod Lurie) [2000, США, Германия, Великобритания, триллер, драма, WEB-DL 720p] DVO + Sub Eng + Original Eng

Ответить на тему
 
Автор Сообщение

user ®

Стаж: 7 лет 7 месяцев

Сообщений: 20008

Пост Пост: #1 от 13-Сен-2013 09:00

[Цитировать]

Претендент / The Contender Страна: США, Германия, Великобритания
Студия: Battlefield, Cinecontender, Cinerenta Medienbeteiligungs KG, SE8 Group
Жанр: триллер, драма
Год выпуска: 2000
Продолжительность: 02:06:38
Перевод: Профессиональный (двухголосый закадровый) [РенТВ]
Cубтитры: английские
Оригинальная аудиодорожка: английский
Режиссер: Род Лури / Rod Lurie
В ролях: Гари Олдман, Джоан Аллен, Джефф Бриджес, Кристиан Слэйтер, Сэм Эллиотт, Уильям Л. Питерсен, Сол Рубинек, Филип Бейкер Холл, Майк Байндер, Робин Томас, Мэриэл Хемингуэй, Кэтрин Моррис, Кристен Шоу, Анджелика Торн, Ларри Кинг, Кэрин Мовер
Описание: Президент США Джексон Ивэнс, которому вскоре предстоит покинуть Белый дом, желая навсегда остаться в истории страны, выдвигает на пост скончавшегося вице-президента женщину, сенатора Лэйн Хенсон, вызывая этим сенсационным решением бурные дебаты в правительстве и обществе.
Ему решительно противостоит конгрессмен Шелдон Раньон, у которого есть свой кандидат на этот пост. Наплевав на моральные и этические нормы, он придает гласности факты распутного поведения Лэйн Хенсон в студенческие годы, стремясь «похоронить» сенатора любыми, даже самыми грязными средствами.
Теперь умной и порядочной женщине, поставленной перед самым трудным выбором в ее жизни, предстоит решить — сойти ли ей с политической арены, навсегда запятнав себя позором, или продолжить борьбу, противостоя могущественным и безжалостным врагам.
Доп. информация:

Тип релиза: WEB-DL 720p
Контейнер: MKV
Видео: MPEG-4 AVC Video, 1280x720 / 1,78:1 (16:9) / 3926 kbps / 23,976 fps / Main@L3.1
Аудио 1: Russian: AC3, 2.0 ch, 192 kbps, 48 kHz
Аудио 2: English: AC3, 6 ch, 384 kbps, 48 kHz
Формат субтитров: softsub (SRT)
Главы: подписаны

MediaInfo

Общее
Уникальный идентификатор : 198988590347117011996143827868352906563 (0x95B3CEF82877BD67BD46732788EA0543)
Полное имя : Претендент 2000.WEB-DL.720p.ПД.Eng.mkv
Формат : Matroska
Версия формата : Version 4 / Version 2
Размер файла : 4,06 Гбайт
Продолжительность : 2 ч. 6 м.
Общий поток : 4593 Кбит/сек
Название фильма : The Contender 2000
Дата кодирования : UTC 2013-09-12 08:45:53
Программа кодирования : mkvmerge v6.3.0 ('You can't stop me!') built on Jun 28 2013 20:09:41
Библиотека кодирования : libebml v1.3.0 + libmatroska v1.4.0
Видео
Идентификатор : 1
Формат : AVC
Формат/Информация : Advanced Video Codec
Профиль формата : High@L3.1
Параметр CABAC формата : Нет
Параметр ReFrames формата : 2 кадра
Идентификатор кодека : V_MPEG4/ISO/AVC
Продолжительность : 2 ч. 6 м.
Битрейт : 3926 Кбит/сек
Ширина : 1280 пикселей
Высота : 720 пикселей
Соотношение сторон : 16:9
Режим частоты кадров : Постоянный
Частота кадров : 23,976 кадра/сек
Цветовое пространство : YUV
Субдискретизация насыщенности : 4:2:0
Битовая глубина : 8 бит
Тип развёртки : Прогрессивная
Бит/(Пиксели*Кадры) : 0.178
Размер потока : 3,47 Гбайт (85%)
Заголовок : AC3 2.0ch 192kbps - двухголосый
Язык : English
Default : Да
Forced : Нет
Основные цвета : BT.709
Характеристики трансфера : BT.709
Коэффициенты матрицы : BT.709
Аудио #1
Идентификатор : 2
Формат : AC-3
Формат/Информация : Audio Coding 3
Расширение режима : CM (complete main)
Параметр Endianness формата : Big
Идентификатор кодека : A_AC3
Продолжительность : 2 ч. 6 м.
Вид битрейта : Постоянный
Битрейт : 192 Кбит/сек
Каналы : 2 канала
Расположение каналов : Front: L R
Частота : 48,0 КГц
Битовая глубина : 16 бит
Метод сжатия : С потерями
Размер потока : 174 Мбайт (4%)
Заголовок : AC3 2.0ch 192kbps - двухголосый
Язык : Russian
Default : Да
Forced : Нет
Аудио #2
Идентификатор : 3
Формат : AC-3
Формат/Информация : Audio Coding 3
Расширение режима : CM (complete main)
Параметр Endianness формата : Big
Идентификатор кодека : A_AC3
Продолжительность : 2 ч. 6 м.
Вид битрейта : Постоянный
Битрейт : 384 Кбит/сек
Каналы : 6 каналов
Расположение каналов : Front: L C R, Side: L R, LFE
Частота : 48,0 КГц
Битовая глубина : 16 бит
Метод сжатия : С потерями
Размер потока : 348 Мбайт (8%)
Заголовок : AC3 6ch 384kbps - original
Язык : English
Default : Нет
Forced : Нет
Текст
Идентификатор : 4
Формат : UTF-8
Идентификатор кодека : S_TEXT/UTF8
Идентификатор кодека/Информация : UTF-8 Plain Text
Язык : English
Default : Нет
Forced : Нет
Меню
00:00:00.000 : en:What Would You Die For? (Main Title)
00:06:01.000 : en:Another Chappaquidick
00:11:24.000 : en:The Plan
00:18:19.000 : en:Process of Confirmation
00:24:50.000 : en:Objectivity vs. Subjectivity
00:33:04.000 : en:Beneath My Dignity
00:40:04.000 : en:A Promise of Greatness
00:47:26.000 : en:A Little Nervous
00:53:19.000 : en:Politics is an Extension of War
00:59:50.000 : en:The Nichols Report
01:06:21.000 : en:American Live
01:10:00.000 : en:Not Guilty, But Responsible
01:17:36.000 : en:A Matter of Choice
01:22:16.000 : en:Reluctant Witness
01:26:58.000 : en:Confess
01:30:44.000 : en:Closing Statement
01:35:24.000 : en:Save Face
01:45:05.000 : en:Off the Record
01:52:03.000 : en:Swan Song
01:59:47.000 : en:Curtain Call (End Credits)

-

Скриншот с названием фильма

Скачать

Скачать торрент!

Как скачивать? · Что такое торрент? · Рейтинг и ограничения

Сайт не распространяет и не хранит электронные версии произведений, а лишь предоставляет доступ к создаваемому пользователями каталогу ссылок на торрент-файлы, которые содержат только списки хеш-сумм

[Профиль] [ЛС]
Показать сообщения:    
Ответить на тему

Текущее время: Сегодня 15:51

Часовой пояс: GMT + 4



Вы не можете начинать темы
Вы не можете отвечать на сообщения
Вы не можете редактировать свои сообщения
Вы не можете удалять свои сообщения
Вы не можете голосовать в опросах
Вы не можете прикреплять файлы к сообщениям
Вы не можете скачивать файлы