В первый раз / The First Time (Джон Кэздан / Jon Kasdan) [2012, США, мелодрама, комедия, BDRip 720p] Dub (R5) + Original (Eng) + Sub (Rus, Eng)

Ответить на тему
 
Автор Сообщение

user ®

Стаж: 7 лет 7 месяцев

Сообщений: 20008

Пост Пост: #1 от 13-Сен-2013 09:00

[Цитировать]

В первый раз / The First Time
Страна: США
Студия: Destination Films, Jerimaca Film, Samuel Goldwyn Films LLC
Жанр: мелодрама, комедия
Год выпуска: 2012
Продолжительность: 01:35:00
Перевод: профессиональный (дублированный) [R5]
Оригинальная аудиодорожка: английская
Cубтитры: русские (ValeryPierse), английские
Режиссер: Джон Кэздан / Jon Kasdan
В ролях: Бриттани Робертсон, Дилан О’Брайэн, Джеймс Фрешвилл, Виктория Джастис, Хелстон Сейдж, Джошуа Малина, Крэйг Робертс, Мэгги Элизабет Джонс, Ламаркус Тинкер, Кристин Тейлор, Молли С. Куинн
Описание: Симпатяга Дэйв безнадежно и бесперспективно влюблен в первую школьную красавицу. Очаровательная Обри встречается с самодовольным мачо, который ей совершенно не подходит, но с которым она, зачем-то, решила лишиться девственности. И совсем неизвестно, как бы обернулись жизни двух этих замечательных молодых людей, если бы они случайно не столкнулись на вечеринке, которую разогнала полиция. Обри и Дэйв становятся друзьями… нет вы не подумайте — только друзьями, которые могут поплакаться друг другу в жилетку и пожаловаться на превратности любви. Но однажды их нежная дружба начинает под воздействием сильного эротического электричества превращаться во что-то большее — захватывающее и волнующее. В то, что у каждого когда-то бывает в первый раз…и о чем потом, бывает, смешно вспоминать.

Релиз: fanatus
Качество видео: BDRip 720p
Исходник: [url=http://***/forum/viewtopic.php?t=4532814]BDRemux 1080p[/url]
Контейнер: MKV
Видео: MPEG-4 AVC, 5000 kbps , 1280x720 (16:9), 24.000 fps, 0.226 bit/pixel
Аудио 1: русский (AC3, 6 ch, 48 kHz, 448 kbps)
Аудио 2: английский (AC3, 6 ch, 48 kHz, 640 kbps)
Формат субтитров: softsub (SRT)
Главы: есть

MediaInfo

General
Unique ID : 186802914766340088116544544783840673575 (0x8C88EEC70C4836738F673929696D7F27)
Complete name : E:\The First Time.2012.x264.BDRip.720p.fanatus.mkv
Format : Matroska
Format version : Version 2
File size : 4.04 GiB
Duration : 1h 35mn
Overall bit rate : 6 087 Kbps
Movie name : The First Time (2012) - fanatus
Encoded date : UTC 2013-09-12 18:22:53
Writing application : mkvmerge v3.4.0 ('Rapunzel') сборка от May 15 2010 09:38:20
Writing library : libebml v0.8.0 + libmatroska v0.9.0
Video
ID : 1
Format : AVC
Format/Info : Advanced Video Codec
Format profile : High@L4.1
Format settings, CABAC : Yes
Format settings, ReFrames : 9 frames
Codec ID : V_MPEG4/ISO/AVC
Duration : 1h 35mn
Bit rate : 5 000 Kbps
Width : 1 280 pixels
Height : 720 pixels
Display aspect ratio : 16:9
Frame rate : 24.000 fps
Color space : YUV
Chroma subsampling : 4:2:0
Bit depth : 8 bits
Scan type : Progressive
Bits/(Pixel*Frame) : 0.226
Stream size : 3.24 GiB (80%)
Title : The First Time (2012)
Writing library : x264 core 138 r2358 9e941d1
Encoding settings : cabac=1 / ref=9 / deblock=1:-3:-3 / analyse=0x3:0x113 / me=umh / subme=11 / psy=1 / psy_rd=0.90:0.00 / mixed_ref=1 / me_range=32 / chroma_me=1 / trellis=2 / 8x8dct=1 / cqm=0 / deadzone=21,11 / fast_pskip=0 / chroma_qp_offset=-2 / threads=16 / lookahead_threads=4 / sliced_threads=0 / nr=0 / decimate=0 / interlaced=0 / bluray_compat=0 / constrained_intra=0 / bframes=12 / b_pyramid=2 / b_adapt=2 / b_bias=0 / direct=3 / weightb=1 / open_gop=0 / weightp=2 / keyint=240 / keyint_min=24 / scenecut=40 / intra_refresh=0 / rc_lookahead=240 / rc=2pass / mbtree=0 / bitrate=5000 / ratetol=1.0 / qcomp=0.65 / qpmin=0 / qpmax=69 / qpstep=4 / cplxblur=20.0 / qblur=0.5 / vbv_maxrate=50000 / vbv_bufsize=62500 / nal_hrd=none / ip_ratio=1.35 / pb_ratio=1.25 / aq=1:0.70
Language : English
Default : Yes
Forced : No
Color primaries : BT.709-5, BT.1361, IEC 61966-2-4, SMPTE RP177
Transfer characteristics : BT.709-5, BT.1361
Matrix coefficients : BT.709-5, BT.1361, IEC 61966-2-4 709, SMPTE RP177
Audio #1
ID : 2
Format : AC-3
Format/Info : Audio Coding 3
Mode extension : CM (complete main)
Format settings, Endianness : Big
Codec ID : A_AC3
Duration : 1h 35mn
Bit rate mode : Constant
Bit rate : 448 Kbps
Channel(s) : 6 channels
Channel positions : Front: L C R, Side: L R, LFE
Sampling rate : 48.0 KHz
Bit depth : 16 bits
Compression mode : Lossy
Stream size : 304 MiB (7%)
Title : Dub
Language : Russian
Default : Yes
Forced : No
Audio #2
ID : 3
Format : AC-3
Format/Info : Audio Coding 3
Mode extension : CM (complete main)
Format settings, Endianness : Big
Codec ID : A_AC3
Duration : 1h 35mn
Bit rate mode : Constant
Bit rate : 640 Kbps
Channel(s) : 6 channels
Channel positions : Front: L C R, Side: L R, LFE
Sampling rate : 48.0 KHz
Bit depth : 16 bits
Compression mode : Lossy
Stream size : 435 MiB (11%)
Title : Original
Language : English
Default : No
Forced : No
Text #1
ID : 4
Format : UTF-8
Codec ID : S_TEXT/UTF8
Codec ID/Info : UTF-8 Plain Text
Language : Russian
Default : No
Forced : No
Text #2
ID : 5
Format : UTF-8
Codec ID : S_TEXT/UTF8
Codec ID/Info : UTF-8 Plain Text
Language : English
Default : No
Forced : No
Menu
00:00:00.000 : :Chapter 01
00:08:42.833 : :Chapter 02
00:13:58.291 : :Chapter 03
00:22:19.083 : :Chapter 04
00:27:43.666 : :Chapter 05
00:33:20.500 : :Chapter 06
00:39:21.000 : :Chapter 07
00:45:14.208 : :Chapter 08
00:49:32.666 : :Chapter 09
00:54:12.875 : :Chapter 10
00:58:36.625 : :Chapter 11
01:02:02.875 : :Chapter 12
01:07:54.041 : :Chapter 13
01:15:28.333 : :Chapter 14
01:23:23.791 : :Chapter 15
01:31:28.125 : :Chapter 16

x264 [info]

---[Information] [12.09.2013 16:21:19] raw [info]: 1280x720p 1:1 @ 24/1 fps (cfr)
---[Information] [12.09.2013 16:21:19] x264 [info]: using SAR=1/1
---[Information] [12.09.2013 16:21:19] x264 [info]: using cpu capabilities: MMX2 SSE2Fast SSSE3 SSE4.2 AVX
---[Information] [12.09.2013 16:21:19] x264 [info]: profile High, level 4.1
---[Information] [12.09.2013 21:03:03] x264 [info]: frame I:1011 Avg QP:11.78 size:145681
---[Information] [12.09.2013 21:03:03] x264 [info]: frame P:32821 Avg QP:15.30 size: 48984
---[Information] [12.09.2013 21:03:03] x264 [info]: frame B:102990 Avg QP:17.09 size: 17534
---[Information] [12.09.2013 21:03:03] x264 [info]: consecutive B-frames: 2.8% 3.2% 10.5% 29.7% 17.6% 32.4% 2.3% 0.5% 0.4% 0.1% 0.1% 0.1% 0.3%
---[Information] [12.09.2013 21:03:03] x264 [info]: mb I I16..4: 19.8% 50.2% 30.0%
---[Information] [12.09.2013 21:03:03] x264 [info]: mb P I16..4: 1.6% 10.2% 2.1% P16..4: 26.8% 26.3% 11.1% 0.0% 0.0% skip:21.9%
---[Information] [12.09.2013 21:03:03] x264 [info]: mb B I16..4: 0.3% 1.4% 0.2% B16..8: 24.4% 17.3% 3.7% direct: 8.0% skip:44.7% L0:39.5% L1:40.0% BI:20.6%
---[Information] [12.09.2013 21:03:03] x264 [info]: 8x8 transform intra:70.2% inter:50.3%
---[Information] [12.09.2013 21:03:03] x264 [info]: direct mvs spatial:98.9% temporal:1.1%
---[Information] [12.09.2013 21:03:03] x264 [info]: coded y,uvDC,uvAC intra: 70.2% 83.0% 70.9% inter: 23.3% 32.3% 17.2%
---[Information] [12.09.2013 21:03:03] x264 [info]: i16 v,h,dc,p: 57% 10% 5% 27%
---[Information] [12.09.2013 21:03:03] x264 [info]: i8 v,h,dc,ddl,ddr,vr,hd,vl,hu: 13% 9% 17% 8% 10% 11% 10% 11% 11%
---[Information] [12.09.2013 21:03:03] x264 [info]: i4 v,h,dc,ddl,ddr,vr,hd,vl,hu: 17% 9% 17% 7% 12% 11% 9% 9% 9%
---[Information] [12.09.2013 21:03:03] x264 [info]: i8c dc,h,v,p: 44% 21% 19% 15%
---[Information] [12.09.2013 21:03:03] x264 [info]: Weighted P-Frames: Y:2.8% UV:1.1%
---[Information] [12.09.2013 21:03:03] x264 [info]: ref P L0: 45.8% 9.1% 18.5% 6.9% 6.0% 4.1% 3.9% 2.4% 2.8% 0.4% 0.0%
---[Information] [12.09.2013 21:03:03] x264 [info]: ref B L0: 77.5% 10.8% 4.5% 2.6% 1.9% 1.5% 0.8% 0.4%
---[Information] [12.09.2013 21:03:03] x264 [info]: ref B L1: 94.5% 5.5%
---[Information] [12.09.2013 21:03:03] x264 [info]: kb/s:4996.79
---[Information] [12.09.2013 21:03:03] encoded 136822 frames, 8.09 fps, 4996.79 kb/s

Скриншот c названием фильма

Скриншоты

Source vs Rip




Скачать

Скачать торрент!

Как скачивать? · Что такое торрент? · Рейтинг и ограничения

Сайт не распространяет и не хранит электронные версии произведений, а лишь предоставляет доступ к создаваемому пользователями каталогу ссылок на торрент-файлы, которые содержат только списки хеш-сумм

[Профиль] [ЛС]
Показать сообщения:    
Ответить на тему

Текущее время: Сегодня 12:36

Часовой пояс: GMT + 4



Вы не можете начинать темы
Вы не можете отвечать на сообщения
Вы не можете редактировать свои сообщения
Вы не можете удалять свои сообщения
Вы не можете голосовать в опросах
Вы не можете прикреплять файлы к сообщениям
Вы не можете скачивать файлы