Бегущая по волнам (Валерий Пендраковский) [2007, романтическая мелодрама, приключения, DVDRip]

Ответить на тему
 
Автор Сообщение

user ®

Стаж: 7 лет 7 месяцев

Сообщений: 20008

Пост Пост: #1 от 13-Сен-2013 09:00

[Цитировать]

Бегущая по волнам
Легенда о Фрези Грант, бегущей по волнам

Страна: Россия, Украина
Год выпуска: 2007
Жанр: романтическая мелодрама, приключения
Продолжительность: 02:08:45-Режиссер: Валерий Пендраковский-В ролях: Андрей Бирин, Диана Морозова, Алексей Петренко, Михаил Горевой, Игорь Яцко, Олег Комаров, Андрей Межулис, Евгений Кулаков, Артём Мазунов, Николай Карпенко, Игорь Капатов, Александр Корепанов, Ваня Литовкин, Юрий Шерстнёв, Ольга Зайцева, Эльдар Джелилов-Описание: Вольная экранизация фантастического романа Александра Грина. На шхуне «Морская звезда» судьба сводит нескольких людей - все они становятся членами одной команды. Однажды на борт корабля попадает таинственный незнакомец. От верной смерти в открытом море его спасла девушка-призрак, скользящая по волнам. Так начинается история, полная таинственных, роковых совпадений и захватывающих приключений…-Доп. информация: В этом красочном музыкально-приключенченском фильме для всей семьи снимались "звезды" российского кино, а музыку к фильму записали "звезды" российской эстрады и рока: МакSим, Алексей Кортнев, Алексей Мартынов и Евгений Жуков, Максим Покровский и Аян-Оол Сам, "Кукрыниксы", "Непара", Марианна Шустер, Анатолий Горев, Богдан Титомир и Nass, "Маркшайдер Кунст", Сергей Забава, Валерий Кипелов, Александр Маршал и Ани Лорак, Сергей Мазаев, Юлия Щербинина, Ольга Дворянцева.- -Качество видео: DVDRip
Формат видео: AVI
Видео: 704x400 (1.76:1), 25 fps, XviD build 65 ~1982 kbps avg, 0.28 bit/pixel
Аудио: 48 kHz, AC3 Dolby Digital, 3/2 (L,C,R,l,r) + LFE ch, ~448 kbps

MediaInfo

GeneralComplete name : Beguschaya.po.volnam_Olu6ka.aviFormat : AVIFormat/Info : Audio Video InterleaveFormat profile : OpenDMLFile size : 2.19 GiBDuration : 2h 8mnOverall bit rate : 2 438 Kbps
VideoID : 0Format : MPEG-4 VisualFormat profile : Advanced Simple@L5Format settings, BVOP : 1Format settings, QPel : NoFormat settings, GMC : No warppointsFormat settings, Matrix : CustomCodec ID : XVIDCodec ID/Hint : XviDDuration : 2h 8mnBit rate : 1 978 KbpsWidth : 704 pixelsHeight : 400 pixelsDisplay aspect ratio : 16:9Frame rate : 25.000 fpsColor space : YUVChroma subsampling : 4:2:0Bit depth : 8 bitsScan type : ProgressiveCompression mode : LossyBits/(Pixel*Frame) : 0.281Stream size : 1.78 GiB (81%)Writing library : XviD 65
AudioID : 1Format : AC-3Format/Info : Audio Coding 3Mode extension : CM (complete main)Format settings, Endianness : BigCodec ID : 2000Duration : 2h 8mnBit rate mode : ConstantBit rate : 448 KbpsChannel(s) : 6 channelsChannel positions : Front: L C R, Side: L R, LFESampling rate : 48.0 KHzBit depth : 16 bitsCompression mode : LossyStream size : 413 MiB (18%)Alignment : Split accross interleavesInterleave, duration : 40 ms (1.00 video frame)Interleave, preload duration : 500 ms
Скачать

Скачать торрент!

Как скачивать? · Что такое торрент? · Рейтинг и ограничения

Сайт не распространяет и не хранит электронные версии произведений, а лишь предоставляет доступ к создаваемому пользователями каталогу ссылок на торрент-файлы, которые содержат только списки хеш-сумм

[Профиль] [ЛС]
Показать сообщения:    
Ответить на тему

Текущее время: Сегодня 22:39

Часовой пояс: GMT + 4



Вы не можете начинать темы
Вы не можете отвечать на сообщения
Вы не можете редактировать свои сообщения
Вы не можете удалять свои сообщения
Вы не можете голосовать в опросах
Вы не можете прикреплять файлы к сообщениям
Вы не можете скачивать файлы