Клыки кобры / Fangs of the Cobra / Cobra Girl / Ren she shu (Сунь Чжун / Sun Chung) [1977, Гонконг, мелодрама, триллер, DVDRip] VO (Виктор Береговых)

Ответить на тему
 
Автор Сообщение

user ®

Стаж: 13 лет

Сообщений: 15071

Пост Пост: #1 от 12-Сен-2013 23:35

[Цитировать]

Клыки кобры / Fangs of the Cobra / Cobra Girl / Ren she shu
Страна: Гонконг
Жанр: мелодрама, триллер
Год выпуска: 1977
Продолжительность: 01:35:03
Перевод: Одноголосый закадровый Виктор Береговых
Cубтитры: нет
Режиссер: Сунь Чжун / Sun Chung
В ролях: Чун Ва, Сяо Яо, Вэй Хун, Дана, Чин Мяо, Ян Чжицин, Фань Мэйшэн, Цзя Лин, Ван Цинхэ
Описание: Молодая девушка А Фэнь и её отец живут на ферме и занимаются разведением уток. У А Фэнь нет друзей среди людей и её единственный друг кобра по имени Сиси. Отец А Фэнь не одобряет подобную дружбу, но девушка не желает отказываться от единственного друга. В скором времени А Фэнь выходит замуж за сына местного землевладельца и Сиси становится лишней в молодой семье. Но когда завистники начинают угрожать жизням близких ей людей, кобра начинает действовать... (В. Береговых)
Благодарность: За исходник, перевод, озвучивание и описание благодарность выражается Виктору Береговых.
Сэмпл: http://multi-up.com/902786
Качество видео: DVDRip
Формат видео: AVI
Видео: 656x288 (2.28:1), 23.976 fps, XviD build 50 ~2004 kbps avg, 0.44 bit/pixel
Аудио: 48 kHz, AC3 Dolby Digital, 2/0 (L,R) ch, ~192 kbps

MediaInfo

Format : AVI
Format/Info : Audio Video Interleave
File size : 1,46 Гбайт
Duration : 1 ч. 35 м.
Overall bit rate : 2206 Кбит/сек
Writing application : VirtualDubMod 1.5.10.3 | www.virtualdub-fr.org || (build 2550/release)
Writing library : VirtualDubMod build 2550/release
Видео
ID : 0
Format : MPEG-4 Visual
Format profile : Advanced Simple@L5
Format settings, BVOP : 2
Format settings, QPel : Нет
Format settings, GMC : Без точки перехода
Format settings, Matrix : Default (MPEG)
Codec ID : XVID
Codec ID/Hint : XviD
Duration : 1 ч. 35 м.
Bit rate : 2005 Кбит/сек
Width : 656 пикселей
Height : 288 пикселей
Display aspect ratio : 2,25:1
Frame rate : 23,976 кадра/сек
Color space : YUV
Chroma subsampling : 4:2:0
Bit depth : 8 бит
Scan type : Прогрессивная
Compression mode : С потерями
Bits/(Pixel*Frame) : 0.443
Stream size : 1,33 Гбайт (91%)
Writing library : XviD 1.2.1 (UTC 2008-12-04)
Аудио
ID : 1
Format : AC-3
Format/Info : Audio Coding 3
Mode extension : CM (complete main)
Format settings, Endianness : Big
Codec ID : 2000
Duration : 1 ч. 35 м.
Bit rate mode : Постоянный
Bit rate : 192 Кбит/сек
Channel(s) : 2 канала
Channel positions : Front: L R
Sampling rate : 48,0 КГц
Bit depth : 16 бит
Compression mode : С потерями
Stream size : 131 Мбайт (9%)
Alignment : Разделение по промежуткам
Interleave, duration : 42 мс. (1,00 видеокадр)
Interleave, preload duration : 500 мс.

Скриншот c названием фильма

Скриншоты

Скачать

Скачать торрент! Клыки кобры / Fangs of the Cobra / Cobra Girl / Ren she shu (Сунь Чжун / Sun Chung) [1977, Гонконг, мелодрама, триллер, DVDRip] VO (Виктор Береговых)

Как скачивать? · Что такое торрент? · Рейтинг и ограничения

Сайт не распространяет и не хранит электронные версии произведений, а лишь предоставляет доступ к создаваемому пользователями каталогу ссылок на торрент-файлы, которые содержат только списки хеш-сумм

[Профиль] [ЛС]
Показать сообщения:    
Ответить на тему

Текущее время: Сегодня 17:41

Часовой пояс: GMT + 4



Вы не можете начинать темы
Вы не можете отвечать на сообщения
Вы не можете редактировать свои сообщения
Вы не можете удалять свои сообщения
Вы не можете голосовать в опросах
Вы не можете прикреплять файлы к сообщениям
Вы не можете скачивать файлы