Форсаж 6 / Furious 6 (Джастин Лин / Justin Lin) [2013, Боевик, Триллер, Драма, BDRip-AVC] [Theatrical Cut] Dub (Tunes Russia) + Original (Eng) + Sub (rus., eng.)

Ответить на тему
 
Автор Сообщение

user ®

Стаж: 7 лет 7 месяцев

Сообщений: 20008

Пост Пост: #1 от 12-Сен-2013 23:35

[Цитировать]

Форсаж 6 / Furious 6- Страна: США / Etalon film, Original Film
Жанр: Боевик, Триллер, Драма
Год выпуска: 2013
Продолжительность: 02:10:06-Перевод: Профессиональный (дублированный) iTunes Russia
Cубтитры: русские (полные + форс.), английские
Формат субтитров: softsub (SRT)
Оригинальная аудиодорожка: английский-Режиссер: Джастин Лин / Justin Lin
В ролях: Вин Дизель, Пол Уокер, Дуэйн Джонсон, Мишель Родригес, Люк Эванс, Тайриз Гибсон, Лудакрис, Санг Кенг, Галь Гадот, Джордана Брюстер
Описание: После того как Доминик и Брайн побывали в Рио, где они ограбили и свергли империю вора в законе, их команда получила 100 миллионов, и наши герои оказались разбросаны по всему миру. Но их привычка вечно жить в бегах не даёт им покоя. Между тем, Хоббс отслеживал организацию смертельно опасных наёмников-водителей по двенадцати странам. Единственный способ остановить эту криминальную группу — это превзойти их на улицах, поэтому Хоббс просит Доминика собрать его элитную команду в Лондоне. За это он обещает полное помилование для Доминика и его друзей, чтобы они смогли наконец вернуться домой к своей семье.- -Релиз от:
Автор рипа: potroks-Качество видео: BDRip-AVC [Fast And Furious 6 2013 2 IN 1 EXTENDED+THEATRICAL 1080p BluRay AVC DTS HD MA 5 1 PublicHD]
Формат видео: MKV
Видео: х.264, 1040x442 (2,35:1), 23,976 fps, 1635 Кbps, 0.148 bit/pixel
Аудио#1: 48 kHz, AC3 Dolby Digital, 3/2 (L,C,R,l,r) + LFE ch, 384.00 kbps | RUS
Аудио#2: 48 kHz, AC3 Dolby Digital, 3/2 (L,C,R,l,r) + LFE ch, 384.00 kbps | ENG

MediaInfo

Общее
Уникальный идентификатор : 215002191918882127766598197084830559890 (0xA1BFEA7BDDB888FBB929CF32FB97EE92)
Полное имя : Forsazh.Pentalogy.R.G.AVI_AVC\Forsazh.6.2013.Theatrical.DUAL.BDRip.x264.-HELLYWOOD.mkv
Формат : Matroska
Версия формата : Version 4 / Version 2
Размер файла : 2,19 Гбайт
Продолжительность : 2 ч. 10 м.
Общий поток : 2406 Кбит/сек
Название фильма : HELLYWOOD - rip by potroks
Дата кодирования : UTC 2013-09-05 12:51:28
Программа кодирования : mkvmerge v5.9.0 ('On The Loose') built on Dec 15 2012 16:39:58
Библиотека кодирования : libebml v1.3.0 + libmatroska v1.4.0
Видео
Идентификатор : 1
Формат : AVC
Формат/Информация : Advanced Video Codec
Профиль формата : High@L4.1
Параметр CABAC формата : Да
Параметр ReFrames формата : 10 кадров
Идентификатор кодека : V_MPEG4/ISO/AVC
Продолжительность : 2 ч. 10 м.
Битрейт : 1635 Кбит/сек
Ширина : 1040 пикселей
Высота : 442 пикселя
Соотношение сторон : 2,35:1
Режим частоты кадров : Постоянный
Частота кадров : 23,976 кадра/сек
Цветовое пространство : YUV
Субдискретизация насыщенности : 4:2:0
Битовая глубина : 8 бит
Тип развёртки : Прогрессивная
Бит/(Пиксели*Кадры) : 0.148
Размер потока : 1,44 Гбайт (66%)
Заголовок : Furious 6
Библиотека кодирования : x264 core 130 r2273 b3065e6
Настройки программы : cabac=1 / ref=10 / deblock=1:-2:-2 / analyse=0x3:0x133 / me=umh / subme=11 / psy=1 / psy_rd=1.08:0.02 / mixed_ref=1 / me_range=48 / chroma_me=1 / trellis=2 / 8x8dct=1 / cqm=0 / deadzone=21,11 / fast_pskip=0 / chroma_qp_offset=-3 / threads=8 / lookahead_threads=2 / sliced_threads=0 / nr=0 / decimate=1 / interlaced=0 / bluray_compat=0 / constrained_intra=0 / bframes=11 / b_pyramid=2 / b_adapt=2 / b_bias=0 / direct=3 / weightb=1 / open_gop=0 / weightp=2 / keyint=250 / keyint_min=23 / scenecut=40 / intra_refresh=0 / rc_lookahead=60 / rc=2pass / mbtree=0 / bitrate=1635 / ratetol=1.0 / qcomp=0.70 / qpmin=0 / qpmax=69 / qpstep=4 / cplxblur=20.0 / qblur=0.5 / vbv_maxrate=20000 / vbv_bufsize=20000 / nal_hrd=none / ip_ratio=1.35 / pb_ratio=1.25 / aq=2:0.80
Язык : English
Default : Да
Forced : Нет
Аудио #1
Идентификатор : 2
Формат : AC-3
Формат/Информация : Audio Coding 3
Расширение режима : CM (complete main)
Параметр Endianness формата : Big
Идентификатор кодека : A_AC3
Продолжительность : 2 ч. 10 м.
Вид битрейта : Постоянный
Битрейт : 384 Кбит/сек
Каналы : 6 каналов
Расположение каналов : Front: L C R, Side: L R, LFE
Частота : 48,0 КГц
Битовая глубина : 16 бит
Метод сжатия : С потерями
Размер потока : 357 Мбайт (16%)
Заголовок : Dub | DD 5.1 @ 384 kbps - Tunes Russia
Язык : Russian
Default : Да
Forced : Да
Аудио #2
Идентификатор : 3
Формат : AC-3
Формат/Информация : Audio Coding 3
Расширение режима : CM (complete main)
Параметр Endianness формата : Big
Идентификатор кодека : A_AC3
Продолжительность : 2 ч. 10 м.
Вид битрейта : Постоянный
Битрейт : 384 Кбит/сек
Каналы : 6 каналов
Расположение каналов : Front: L C R, Side: L R, LFE
Частота : 48,0 КГц
Битовая глубина : 16 бит
Метод сжатия : С потерями
Размер потока : 357 Мбайт (16%)
Заголовок : Original | DD 5.1 @ 384 kbps
Язык : English
Default : Нет
Forced : Нет
Текст #1
Идентификатор : 4
Формат : UTF-8
Идентификатор кодека : S_TEXT/UTF8
Идентификатор кодека/Информация : UTF-8 Plain Text
Заголовок : Forced
Язык : Russian
Default : Да
Forced : Да
Текст #2
Идентификатор : 5
Формат : UTF-8
Идентификатор кодека : S_TEXT/UTF8
Идентификатор кодека/Информация : UTF-8 Plain Text
Заголовок : Full
Язык : Russian
Default : Нет
Forced : Нет
Текст #3
Идентификатор : 6
Формат : UTF-8
Идентификатор кодека : S_TEXT/UTF8
Идентификатор кодека/Информация : UTF-8 Plain Text
Заголовок : Full
Язык : English
Default : Нет
Forced : Нет

Скриншоты

Скачать

Скачать торрент!

Как скачивать? · Что такое торрент? · Рейтинг и ограничения

Сайт не распространяет и не хранит электронные версии произведений, а лишь предоставляет доступ к создаваемому пользователями каталогу ссылок на торрент-файлы, которые содержат только списки хеш-сумм

[Профиль] [ЛС]
Показать сообщения:    
Ответить на тему

Текущее время: Сегодня 09:53

Часовой пояс: GMT + 4



Вы не можете начинать темы
Вы не можете отвечать на сообщения
Вы не можете редактировать свои сообщения
Вы не можете удалять свои сообщения
Вы не можете голосовать в опросах
Вы не можете прикреплять файлы к сообщениям
Вы не можете скачивать файлы