Стартрек: Возмездие / Star Trek Into Darkness (Джей Джей Абрам / J.J. Abrams) [2013, США, фантастика, боевик, приключения, BDRip] Dub CEE + Sub rus forced

Ответить на тему
 
Автор Сообщение

user ®

Стаж: 7 лет 7 месяцев

Сообщений: 20008

Пост Пост: #1 от 12-Сен-2013 23:35

[Цитировать]

Стартрек: Возмездие / Star Trek Into Darkness
«Beyond the darkness, lies greatness.»
- Страна: Австралия, США / Bad Robot, Paramount Pictures, Skydance Productions
Жанр: фантастика, боевик, приключения
Год выпуска: 2013
Продолжительность: 02:12:05
Перевод: Профессиональный (дублированный) лицензия CEE
Cубтитры: русские (forced) на надписи и инопланетную речь (внешние)
Режиссёр: Джей Джей Абрам / J.J. Abrams
В ролях: Крис Пайн, Закари Куинто, Бенедикт Камбербэтч, Саймон Пегг, Карл Урбан, Зои Салдана, Элис Ив, Джон Чо, Антон Ельчин, Питер Уэллер, Брюс Гринвуд, Леонард Нимой, Ноэль Кларк.
Описание: Вернувшись на Землю, команда корабля «Энтерпрайз» обнаруживает, что деятельность и принципы их организации подорваны изнутри. Флот скован необъяснимым ужасом и бездействует, пока мир все глубже погружается в бездну. Капитан Кирк берет на себя руководство операцией по поимке злодея, ответственного за этот хаос и способного уничтожить все человечество. В запутанной игре не на жизнь, а на смерть, любовь и дружба будут принесены в жертву ради единственного, что осталось у Кирка — его команды.-Рейтинг
imdb.com: 8.0 (175 389)
kinopoisk.ru: 7.966 (34 975)
MPAA: - детям до 13 лет просмотр не желателен-Сэмпл: http://multi-up.com/902725-Качество видео: BDRip [Star.Trek.Into.Darkness.2013.BDRemux.1080p.mkv]
Формат видео: AVI
Видео: XviD build 65, 720x304 (2.37:1), 23.976 fps, ~1969 kbps avg, 0.375 bit/pixel
Аудио: 48 kHz, AC3 Dolby Digital, 3/2 (L,C,R,l,r) + LFE ch, ~384 kbps avg (Dub)
Формат субтитров: softsub (SRT)
-

MediaInfo

General
Complete name : D:\Star.Trek.Into.Darkness.2013.Dub.BDRip.2,18Gb.XviD.AC3\Star.Trek.Into.Darkness.2013.Dub.BDRip.2,18Gb.XviD.AC3.avi
Format : AVI
Format/Info : Audio Video Interleave
Format profile : OpenDML
File size : 2.18 GiB
Duration : 2h 12mn
Overall bit rate : 2 365 Kbps
Writing application : VirtualDubModRus 1.5.10.2 (build 2542/release)
Writing library : VirtualDubMod build 2542/release
Video
ID : 0
Format : MPEG-4 Visual
Format profile : Advanced Simple@L5
Format settings, BVOP : 1
Format settings, QPel : No
Format settings, GMC : No warppoints
Format settings, Matrix : Custom
Codec ID : XVID
Codec ID/Hint : XviD
Duration : 2h 12mn
Bit rate : 1 969 Kbps
Width : 720 pixels
Height : 304 pixels
Display aspect ratio : 2.35:1
Frame rate : 23.976 fps
Color space : YUV
Chroma subsampling : 4:2:0
Bit depth : 8 bits
Scan type : Progressive
Compression mode : Lossy
Bits/(Pixel*Frame) : 0.375
Stream size : 1.82 GiB (83%)
Writing library : XviD 65
Audio
ID : 1
Format : AC-3
Format/Info : Audio Coding 3
Mode extension : CM (complete main)
Format settings, Endianness : Big
Codec ID : 2000
Duration : 2h 12mn
Bit rate mode : Constant
Bit rate : 384 Kbps
Channel(s) : 6 channels
Channel positions : Front: L C R, Side: L R, LFE
Sampling rate : 48.0 KHz
Bit depth : 16 bits
Compression mode : Lossy
Stream size : 363 MiB (16%)
Alignment : Split accross interleaves
Interleave, duration : 42 ms (1.00 video frame)
Interleave, preload duration : 500 ms
Title : Dub CEE

Скриншоты

Скачать

Скачать торрент!

Как скачивать? · Что такое торрент? · Рейтинг и ограничения

Сайт не распространяет и не хранит электронные версии произведений, а лишь предоставляет доступ к создаваемому пользователями каталогу ссылок на торрент-файлы, которые содержат только списки хеш-сумм

[Профиль] [ЛС]
Показать сообщения:    
Ответить на тему

Текущее время: Сегодня 14:45

Часовой пояс: GMT + 4



Вы не можете начинать темы
Вы не можете отвечать на сообщения
Вы не можете редактировать свои сообщения
Вы не можете удалять свои сообщения
Вы не можете голосовать в опросах
Вы не можете прикреплять файлы к сообщениям
Вы не можете скачивать файлы