Кровопролитие в долине / Bloody Fight in Iron-Rock Valley / Cheol-ham-gye-gok-eui Hyeo-too (Чин Ха Чжин / Ji Ha Jean) [2011, Южная Корея, криминал, драма, DVDRip] VO

Ответить на тему
 
Автор Сообщение

user ®

Стаж: 11 лет

Сообщений: 15151

Пост Пост: #1 от 12-Сен-2013 20:25

[Цитировать]

Кровопролитие в долине / Bloody Fight in Iron-Rock Valley / Cheol-ham-gye-gok-eui Hyeo-too
Страна: Южная Корея
Жанр: криминал, драма
Год выпуска: 2011
Продолжительность: 01:29:20-Перевод: Одноголосый закадровый den904
Оригинальная аудиодорожка: нет
Субтитры: нет-Режиссер: Чин Ха Чжин/ Ji Ha Jean-В ролях: И Му Сэн, Юн Сан Хва, Чхве Чи Ын, Квок Чжа Хён, И Ён Чик, Чжи Дэ Хан-Описание: Двенадцать лет назад вся семья Чул-Ки была убита. Теперь, отсидев в тюрьме весь свой срок, он выходит на свободу с мыслью отомстить убийцам его родных. Его месть будет жестокой и убийственной ...- -Качество видео: DVDRip (DVD5)
Формат видео: AVI
Видео: XviD, 720x304 (2.37:1), 23.976 fps, 2201 kbps avg, 0.42 bit/pixel
Аудио: Русский MPEG layer 3, 2 ch, 128 kbps

Доп. информация:

Переводчик: deadsno
Рип: Public Enemy (((
Постер: Public Enemy (((

MediaInfo

Format : AVI
Format/Info : Audio Video Interleave
File size : 1.46 GiB
Duration : 1h 29mn
Overall bit rate : 2 339 Kbps
Writing application : VirtualDubMod 1.5.10.2 (build 2540/release)
Writing library : VirtualDubMod build 2540/release
Video
ID : 0
Format : MPEG-4 Visual
Format profile : Advanced Simple@L5
Format settings, BVOP : 1
Format settings, QPel : No
Format settings, GMC : No warppoints
Format settings, Matrix : Custom
Codec ID : XVID
Codec ID/Hint : XviD
Duration : 1h 29mn
Bit rate : 2 202 Kbps
Width : 720 pixels
Height : 304 pixels
Display aspect ratio : 2.35:1
Frame rate : 23.976 fps
Color space : YUV
Chroma subsampling : 4:2:0
Bit depth : 8 bits
Scan type : Progressive
Compression mode : Lossy
Bits/(Pixel*Frame) : 0.420
Stream size : 1.37 GiB (94%)
Writing library : XviD 73
Audio
ID : 1
Format : MPEG Audio
Format version : Version 1
Format profile : Layer 3
Mode : Joint stereo
Mode extension : MS Stereo
Codec ID : 55
Codec ID/Hint : MP3
Duration : 1h 29mn
Bit rate mode : Constant
Bit rate : 128 Kbps
Channel(s) : 2 channels
Sampling rate : 48.0 KHz
Compression mode : Lossy
Stream size : 81.8 MiB (5%)
Alignment : Aligned on interleaves
Interleave, duration : 42 ms (1.00 video frame)
Interleave, preload duration : 504 ms

Скриншот с названием

Скриншоты

Скачать

Скачать торрент! Кровопролитие в долине / Bloody Fight in Iron-Rock Valley / Cheol-ham-gye-gok-eui Hyeo-too (Чин Ха Чжин / Ji Ha Jean) [2011, Южная Корея, криминал, драма, DVDRip] VO

Как скачивать? · Что такое торрент? · Рейтинг и ограничения

Сайт не распространяет и не хранит электронные версии произведений, а лишь предоставляет доступ к создаваемому пользователями каталогу ссылок на торрент-файлы, которые содержат только списки хеш-сумм

[Профиль] [ЛС]
Показать сообщения:    
Ответить на тему

Текущее время: Сегодня 13:12

Часовой пояс: GMT + 4



Вы не можете начинать темы
Вы не можете отвечать на сообщения
Вы не можете редактировать свои сообщения
Вы не можете удалять свои сообщения
Вы не можете голосовать в опросах
Вы не можете прикреплять файлы к сообщениям
Вы не можете скачивать файлы