Осенние соблазны (Владимир Грамматиков) [1993, комедия, VHSRip]

Ответить на тему
 
Автор Сообщение

user ®

Стаж: 8 лет 7 месяцев

Сообщений: 20007

Пост Пост: #1 от 12-Сен-2013 20:25

[Цитировать]

Осенние соблазны
Жанр: комедия
Год выпуска: 1993
Продолжительность: 01:12:37
Режиссёр: Владимир Грамматиков
В ролях: Наталья Фатеева, Игорь Ясулович, Анна Яновская, Валентина Малявина, Андрей Мягков, Егор Грамматиков
Описание: 50-летний Сергей, проводив жену Наташу (Фатеева), приводит в дом молоденькую барышню Аню. Неожиданно вернувшейся жене он представляет девушку, как дочь от первого брака. Аня подыгрывает ему и Наташа оставляет ее ночевать. Назавтра приезжает друг семьи немец Пауль с сыном Клаусом. Во время застолья появляется мамаша Ани и чуть было не портит все. Наташа решает "не мешать восстановлению семьи" и отдает Сергея Аниной мамаше. Девушка решает во всем признаться и узнает, что Наташа обо всем догадывалась с самого начала. И просто дала мужу возможность перебеситься, вылечив таким образом от "комплексов переходного возраста". А Клаус увозит Аню в Германию...
Доп. информация: Оцифровка VHS (личный архив) и получение VHSRip alenavova
Эксклюзив для ***. При размещении данного релиза на других сайтах ссылка на автора alenavova обязательна.

Релиз
Качество видео: VHSRip
Формат видео: AVI
Видео: 624x432 (1.44:1), 25 fps, XviD build 47 ~1298 kbps avg, 0.19 bit/pixel
Аудио: 48 kHz, MPEG Layer 3, 2 ch, ~128.00 kbps avg

MediaInfo

Осенние соблазны [by alenavova].avi
Format : AVI
Format/Info : Audio Video Interleave
File size : 746 MiB
Duration : 1h 12mn
Overall bit rate : 1 436 Kbps
Movie name : Осенние соблазны [by alenavova]
Director : Rip by alenavova
Writing application : FairUse Wizard - http://fairusewizard.com
Copyright : Edich2
Comment : ***
Video
ID : 0
Format : MPEG-4 Visual
Format profile : Advanced Simple@L5
Format settings, BVOP : 1
Format settings, QPel : No
Format settings, GMC : No warppoints
Format settings, Matrix : Default (H.263)
Codec ID : XVID
Codec ID/Hint : XviD
Duration : 1h 12mn
Bit rate : 1 298 Kbps
Width : 624 pixels
Height : 432 pixels
Display aspect ratio : 1.444
Frame rate : 25.000 fps
Color space : YUV
Chroma subsampling : 4:2:0
Bit depth : 8 bits
Scan type : Progressive
Compression mode : Lossy
Bits/(Pixel*Frame) : 0.193
Stream size : 674 MiB (90%)
Writing library : XviD 1.2.0.dev47 (UTC 2006-11-01)
Audio
ID : 1
Format : MPEG Audio
Format version : Version 1
Format profile : Layer 3
Mode : Joint stereo
Mode extension : MS Stereo
Codec ID : 55
Codec ID/Hint : MP3
Duration : 1h 12mn
Bit rate mode : Constant
Bit rate : 128 Kbps
Channel(s) : 2 channels
Sampling rate : 48.0 KHz
Compression mode : Lossy
Stream size : 66.5 MiB (9%)
Alignment : Aligned on interleaves
Interleave, duration : 40 ms (1.00 video frame)
Interleave, preload duration : 504 ms
Writing library : LAME3.97

Скриншоты


Скачать

Скачать торрент!

Как скачивать? · Что такое торрент? · Рейтинг и ограничения

Сайт не распространяет и не хранит электронные версии произведений, а лишь предоставляет доступ к создаваемому пользователями каталогу ссылок на торрент-файлы, которые содержат только списки хеш-сумм

[Профиль] [ЛС]
Показать сообщения:    
Ответить на тему

Текущее время: Сегодня 04:08

Часовой пояс: GMT + 4



Вы не можете начинать темы
Вы не можете отвечать на сообщения
Вы не можете редактировать свои сообщения
Вы не можете удалять свои сообщения
Вы не можете голосовать в опросах
Вы не можете прикреплять файлы к сообщениям
Вы не можете скачивать файлы