Свидетели должны замолчать / Breakout (Дэмиан Ли / Damian Lee) [2013, Канада, боевик, триллер, DVDRip] MVO

Ответить на тему
 
Автор Сообщение

user ®

Стаж: 7 лет 7 месяцев

Сообщений: 20008

Пост Пост: #1 от 12-Сен-2013 10:55

[Цитировать]

Свидетели должны замолчать / Breakout
Страна: Канада
Жанр: боевик, триллер
Год выпуска: 2013
Продолжительность: 01:29:04
Перевод: Профессиональный (многоголосый закадровый)
Cубтитры: нет
Режиссер: Дэмиан Ли / Damian Lee
В ролях: Брендан Фрейзер, Доминик Пёрселл, Итан Сапли, Дэниэл Кэш, Эми Прайс-Фрэнсис, Холли Дево, Лара Даанс, Эндрю Джексон, Лэйтон Моррисон, Аркадия Ли, Энтони Юлк, Наоми Эндрюс, Кристиан Мартин
Описание: Невинная поездка на природу превращается для брата и сестры в опасное приключение, когда они становятся свидетелями убийства. Стремясь избавиться от ненужных глаз, преступники начинают безжалостную охоту на детей. Отец ребят Джек Дэмсон, отбывающий срок в тюрьме за акцию протеста, которая привела к трагическим последствиям, разрабатывает план побега, чтобы вырвать своих детей из цепких лап профессиональных преступников Томми и Кенни...
Сэмпл: http://multi-up.com/902513/
Качество видео: DVDRip
Формат видео: AVI
Видео: XviD, 720x384 , 25.000 fps, 1996 Kbps
Аудио: AC-3, 48.0 KHz, 2 ch, 192 Kbps

MediaInfo

Общее
Полное имя : D:\Svidetili.doljny.zamolchat_2013.DVDRip.avi
Формат : AVI
Формат/Информация : Audio Video Interleave
Размер файла : 1,37 Гбайт
Продолжительность : 1 ч. 29 м.
Общий поток : 2198 Кбит/сек
Программа кодирования : VirtualDubMod 1.5.10.2 (build 2540/release)
Библиотека кодирования : VirtualDubMod build 2540/release
Видео
Идентификатор : 0
Формат : MPEG-4 Visual
Профиль формата : Advanced Simple@L5
Параметр BVOP формата : 2
Параметр QPel формата : Нет
Параметр GMC формата : Без точки перехода
Параметр матрицы формата : Default (MPEG)
Идентификатор кодека : XVID
Идентификатор кодека/Подсказка : XviD
Продолжительность : 1 ч. 29 м.
Битрейт : 1997 Кбит/сек
Ширина : 720 пикселей
Высота : 384 пикселя
Соотношение сторон : 1,85:1
Частота кадров : 23,976 кадра/сек
Цветовое пространство : YUV
Субдискретизация насыщенности : 4:2:0
Битовая глубина : 8 бит
Тип развёртки : Прогрессивная
Метод сжатия : С потерями
Бит/(Пиксели*Кадры) : 0.301
Размер потока : 1,24 Гбайт (91%)
Библиотека кодирования : XviD 1.2.1 (UTC 2008-12-04)
Аудио
Идентификатор : 1
Формат : AC-3
Формат/Информация : Audio Coding 3
Расширение режима : CM (complete main)
Параметр Endianness формата : Big
Идентификатор кодека : 2000
Продолжительность : 1 ч. 29 м.
Вид битрейта : Постоянный
Битрейт : 192 Кбит/сек
Каналы : 2 канала
Расположение каналов : Front: L R
Частота : 48,0 КГц
Битовая глубина : 16 бит
Метод сжатия : С потерями
Размер потока : 122 Мбайт (9%)
Выравнивание : Разделение по промежуткам
Продолжительность промежутка : 42 мс. (1,00 видеокадр)
Время предзагрузки промежутка : 500 мс.

Скриншот c названием фильма

Скриншоты

Скачать

Скачать торрент!

Как скачивать? · Что такое торрент? · Рейтинг и ограничения

Сайт не распространяет и не хранит электронные версии произведений, а лишь предоставляет доступ к создаваемому пользователями каталогу ссылок на торрент-файлы, которые содержат только списки хеш-сумм

[Профиль] [ЛС]
Показать сообщения:    
Ответить на тему

Текущее время: Сегодня 02:22

Часовой пояс: GMT + 4



Вы не можете начинать темы
Вы не можете отвечать на сообщения
Вы не можете редактировать свои сообщения
Вы не можете удалять свои сообщения
Вы не можете голосовать в опросах
Вы не можете прикреплять файлы к сообщениям
Вы не можете скачивать файлы