Президио / The Presidio (Питер Хайамс / Peter Hyams) [1988, США, боевик, триллер, криминал, детектив, BDRip 720p] MVO + DVO (Видеофильм) + AVO (Л.Володарский) + Sub Eng + Original Eng

Ответить на тему
 
Автор Сообщение

user ®

Стаж: 7 лет 7 месяцев

Сообщений: 20008

Пост Пост: #1 от 12-Сен-2013 07:45

[Цитировать]

Президио / The Presidio
Страна: США
Жанр: боевик, триллер, криминал, детектив
Год выпуска: 1988
Продолжительность: 01:36:42
Перевод: Профессиональный (многоголосый закадровый)
Перевод 2: Профессиональный (двухголосый закадровый) Видеофильм
Перевод 3: Авторский (одноголосый закадровый) Л.Володарский
Cубтитры: английские
Оригинальная аудиодорожка: английский
Режиссер: Питер Хайамс / Peter Hyams
В ролях: Шон Коннери, Марк Хэрмон, Мег Райан, Джек Уорден, Марк Блум, Дэна Гладстоун, Дженетт Голдстин, Марвин Дж. МакИнтайр, Дон Кэлфа, Джон ДиСанти
Описание: Подполковник Вооруженных Сил США Алан Колдуэлл и инспектор полиции Сан-Франциско Джей Остин не особенно ладят. Откровенно говоря, они просто не выносят друг друга.
Пару лет назад между мужчинами вспыхнул конфликт, который со временем перерос в стойкую ненависть. Теперь же эти заклятые враги вынуждены вместе заняться расследованием жестокого убийства, произошедшего на военной базе «Президио».
Хуже того… Инспектор Остин неожиданно стал проявлять активный интерес к молодой и привлекательной даме, которая волею судеб оказалась дочерью подполковника Колдуэлла.
Но именно в тот момент, когда напряжение между недругами должно было превратиться в глобальную катастрофу, расследование принимает совершенно неожиданный оборот. Двум офицерам приходится объединиться, чтобы остаться в живых…
Доп. информация: Рип от Galar!
Сэмпл
Тип релиза: BDRip 720p
Контейнер: MKV
Видео: 1280x532 at 23.976 fps, x264@L4.1, ~7000 kbps avg
Аудио: Russian, 448 Кбит/сек, 48.0 КГц, 6 канала, 16 бит, AC3 |Многоголосый закадровый|
Аудио 2: Russian, 192 Кбит/сек, 48.0 КГц, 2 канала, 16 бит, AC3 |DVO Видеофильм|
Аудио 3: Russian, 192 Кбит/сек, 48.0 КГц, 2 канала, 16 бит, AC3 |Одноголосый закадровый, Л.Володарский|
Аудио 4: English, 1509 Кбит/сек, 48.0 КГц, 6 канала, 24 бит, DTS
Формат субтитров: softsub (SRT)

MediaInfo

Общее
Уникальный идентификатор : 216566251733356226647678755728414988071 (0xA2ED24961F86CB86B3EB8098A46BD727)
Полное имя : C:\Users\к\Desktop\КИНО HD\The.Presidio.1988.720p.BDRip.mkv
Формат : Matroska
Версия формата : Version 2
Размер файла : 6,30 Гбайт
Продолжительность : 1 ч. 36 м.
Общий поток : 9332 Кбит/сек
Дата кодирования : UTC 2013-09-11 16:38:19
Программа кодирования : mkvmerge v5.7.0 ('The Whirlwind') built on Jul 29 2012 15:12:35
Библиотека кодирования : libebml v1.2.3 + libmatroska v1.3.0
Видео
Идентификатор : 1
Формат : AVC
Формат/Информация : Advanced Video Codec
Профиль формата : High@L4.1
Параметр CABAC формата : Да
Параметр ReFrames формата : 12 кадров
Идентификатор кодека : V_MPEG4/ISO/AVC
Продолжительность : 1 ч. 36 м.
Битрейт : 7000 Кбит/сек
Ширина : 1280 пикселей
Высота : 532 пикселя
Соотношение сторон : 2,40:1
Режим частоты кадров : Постоянный
Частота кадров : 23,976 кадра/сек
Цветовое пространство : YUV
Субдискретизация насыщенности : 4:2:0
Битовая глубина : 8 бит
Тип развёртки : Прогрессивная
Бит/(Пиксели*Кадры) : 0.429
Размер потока : 4,60 Гбайт (73%)
Библиотека кодирования : x264 core 130 r2273 b3065e6
Настройки программы : cabac=1 / ref=12 / deblock=1:-3:-3 / analyse=0x3:0x113 / me=umh / subme=11 / psy=1 / psy_rd=1.00:0.15 / mixed_ref=1 / me_range=16 / chroma_me=1 / trellis=2 / 8x8dct=1 / cqm=0 / deadzone=21,11 / fast_pskip=0 / chroma_qp_offset=-3 / threads=6 / lookahead_threads=1 / sliced_threads=0 / nr=0 / decimate=0 / interlaced=0 / bluray_compat=0 / constrained_intra=0 / bframes=7 / b_pyramid=2 / b_adapt=2 / b_bias=0 / direct=3 / weightb=1 / open_gop=0 / weightp=2 / keyint=250 / keyint_min=23 / scenecut=40 / intra_refresh=0 / rc=2pass / mbtree=0 / bitrate=7000 / ratetol=1.0 / qcomp=0.60 / qpmin=0 / qpmax=69 / qpstep=4 / cplxblur=20.0 / qblur=0.5 / ip_ratio=1.40 / pb_ratio=1.30 / aq=2:1.00
Язык : English
Default : Да
Forced : Нет
Аудио #1
Идентификатор : 2
Формат : AC-3
Формат/Информация : Audio Coding 3
Расширение режима : CM (complete main)
Параметр Endianness формата : Big
Идентификатор кодека : A_AC3
Продолжительность : 1 ч. 36 м.
Вид битрейта : Постоянный
Битрейт : 448 Кбит/сек
Каналы : 6 каналов
Расположение каналов : Front: L C R, Side: L R, LFE
Частота : 48,0 КГц
Битовая глубина : 16 бит
Метод сжатия : С потерями
Размер потока : 310 Мбайт (5%)
Заголовок : AC3 5.1 448 kbps - Многоголосый закадровый
Язык : Russian
Default : Да
Forced : Нет
Аудио #2
Идентификатор : 3
Формат : AC-3
Формат/Информация : Audio Coding 3
Расширение режима : CM (complete main)
Параметр Endianness формата : Big
Идентификатор кодека : A_AC3
Продолжительность : 1 ч. 36 м.
Вид битрейта : Постоянный
Битрейт : 192 Кбит/сек
Каналы : 2 канала
Расположение каналов : Front: L R
Частота : 48,0 КГц
Битовая глубина : 16 бит
Метод сжатия : С потерями
Размер потока : 133 Мбайт (2%)
Заголовок : DVO (Видеофильм)
Язык : Russian
Default : Нет
Forced : Нет
Аудио #3
Идентификатор : 4
Формат : AC-3
Формат/Информация : Audio Coding 3
Расширение режима : CM (complete main)
Параметр Endianness формата : Big
Идентификатор кодека : A_AC3
Продолжительность : 1 ч. 36 м.
Вид битрейта : Постоянный
Битрейт : 192 Кбит/сек
Каналы : 2 канала
Расположение каналов : Front: L R
Частота : 48,0 КГц
Битовая глубина : 16 бит
Метод сжатия : С потерями
Размер потока : 133 Мбайт (2%)
Заголовок : AC3 2.0 192 kbps - Одноголосый закадровый, Л.Володарский
Язык : Russian
Default : Нет
Forced : Нет
Аудио #4
Идентификатор : 5
Формат : DTS
Формат/Информация : Digital Theater Systems
Режим : 16
Параметр Endianness формата : Big
Идентификатор кодека : A_DTS
Продолжительность : 1 ч. 36 м.
Вид битрейта : Постоянный
Битрейт : 1509 Кбит/сек
Каналы : 6 каналов
Расположение каналов : Front: L C R, Side: L R, LFE
Частота : 48,0 КГц
Битовая глубина : 24 бит
Метод сжатия : С потерями
Размер потока : 1,02 Гбайт (16%)
Заголовок : DTS 5.1 1509 kbps
Язык : English
Default : Нет
Forced : Нет
Текст
Идентификатор : 6
Формат : UTF-8
Идентификатор кодека : S_TEXT/UTF8
Идентификатор кодека/Информация : UTF-8 Plain Text
Язык : English
Default : Нет
Forced : Нет
Меню
00:10:31.422 : en:Chapter 01
00:13:10.623 : en:Chapter 02
00:16:08.592 : en:Chapter 03
00:23:08.595 : en:Chapter 04
00:25:50.799 : :Chapter 05
00:33:41.310 : en:Chapter 06
00:37:18.027 : en:Chapter 07
00:41:40.664 : en:Chapter 08
00:44:17.571 : en:Chapter 09
00:47:21.964 : en:Chapter 10
00:48:55.974 : en:Chapter 11
00:56:53.159 : en:Chapter 12
01:04:20.648 : en:Chapter 13
01:14:38.307 : en:Chapter 14
01:29:35.495 : en:Chapter 15

Скриншоты

Скачать

Скачать торрент!

Как скачивать? · Что такое торрент? · Рейтинг и ограничения

Сайт не распространяет и не хранит электронные версии произведений, а лишь предоставляет доступ к создаваемому пользователями каталогу ссылок на торрент-файлы, которые содержат только списки хеш-сумм

[Профиль] [ЛС]
Показать сообщения:    
Ответить на тему

Текущее время: Сегодня 04:47

Часовой пояс: GMT + 4



Вы не можете начинать темы
Вы не можете отвечать на сообщения
Вы не можете редактировать свои сообщения
Вы не можете удалять свои сообщения
Вы не можете голосовать в опросах
Вы не можете прикреплять файлы к сообщениям
Вы не можете скачивать файлы