В первый раз / The First Time (Джон Кэздан / Jon Kasdan) [2012, США, мелодрама, комедия, BDRemux 1080p] Dub (R5) + Original (Eng) + Subs (Rus, Eng)

Ответить на тему
 
Автор Сообщение

user ®

Стаж: 7 лет 7 месяцев

Сообщений: 20008

Пост Пост: #1 от 12-Сен-2013 07:45

[Цитировать]

В первый раз / The First Time

-
-Страна: США
Студия: Samuel Goldwyn Films, Destination Films, Jerimaca Film
Жанр: мелодрама, комедия
Год выпуска: 2012
Продолжительность: 01:35:01--Перевод: Профессиональный (дублированный) R5
Cубтитры: русские (ValeryPierse), английские
Оригинальная аудиодорожка: английский--Режиссер: Джон Кэздан / Jon Kasdan
В ролях: Бриттани Робертсон, Дилан О’Брайэн, Джеймс Фрешвилл, Виктория Джастис, Крэйг Робертс, Мэгги Элизабет Джонс, Ламаркус Тинкер, Кристин Тейлор, Джошуа Малина, Хелстон Сейдж--Описание: Симпатяга Дэйв безнадежно и бесперспективно влюблен в первую школьную красавицу. Очаровательная Обри встречается с самодовольным мачо, который ей совершенно не подходит, но с которым она, зачем-то, решила лишиться девственности. И совсем неизвестно, как бы обернулись жизни двух этих замечательных молодых людей, если бы они случайно не столкнулись на вечеринке, которую разогнала полиция.
Обри и Дэйв становятся друзьями… нет вы не подумайте — только друзьями, которые могут поплакаться друг другу в жилетку и пожаловаться на превратности любви. Но однажды их нежная дружба начинает под воздействием сильного эротического электричества превращаться во что-то большее — захватывающее и волнующее. В то, что у каждого когда-то бывает в первый раз…и о чем потом, бывает, смешно вспоминать.--imdb | kinopoisk | Сэмпл--Тип релиза: BDRemux 1080p [The First Time 2012 DUAL COMPLETE BLURAY-iFPD]
Контейнер: MKV
Видео: MPEG-4 AVC / 20000 kbps / 1920x1080 / 24 fps / 16:9 / High Profile 4.1
Аудио 1: AC3 / 5.1 / 48 kHz / 448 kbps / 16 bits |Dub, R5|
Аудио 2: DTS / 5.1 / 48 kHz / 1510 kbps / 24 bits |original|
Формат субтитров: softsub [SRT]

MediaInfo

ОбщееУникальный идентификатор : 185134805279767808988378579364148211648 (0x8B47AAA14B6BD69EAA6E0B8B2D48EFC0)Полное имя : G:\HD\В первый раз.2012.Blu-Ray.Remux.(1080p).mkvФормат : MatroskaВерсия формата : Version 2Размер файла : 14,6 ГбайтПродолжительность : 1 ч. 35 м.Режим общего битрейта : ПеременныйОбщий поток : 22,0 Мбит/секДата кодирования : UTC 2013-09-11 17:21:34Программа кодирования : mkvmerge v5.8.0 ('No Sleep / Pillow') built on Sep 2 2012 15:37:04Библиотека кодирования : libebml v1.2.3 + libmatroska v1.3.0Attachment : Yes
ВидеоИдентификатор : 1Формат : AVCФормат/Информация : Advanced Video CodecПрофиль формата : High@L4.1Параметр CABAC формата : ДаПараметр ReFrames формата : 3 кадраРежим смешивания : Container profile=Unknown@0.0Идентификатор кодека : V_MPEG4/ISO/AVCПродолжительность : 1 ч. 35 м.Вид битрейта : ПеременныйБитрейт : 19,6 Мбит/секМаксимальный битрейт : 35,0 Мбит/секШирина : 1920 пикселейВысота : 1080 пикселейСоотношение сторон : 16:9Режим частоты кадров : ПостоянныйЧастота кадров : 24,000 кадра/секСтандарт вещания : NTSCЦветовое пространство : YUVСубдискретизация насыщенности : 4:2:0Битовая глубина : 8 битТип развёртки : ПрогрессивнаяБит/(Пиксели*Кадры) : 0.393Размер потока : 13,0 Гбайт (89%)Default : ДаForced : НетОсновные цвета : BT.709Характеристики трансфера : BT.709Коэффициенты матрицы : BT.709
Аудио #1Идентификатор : 2Формат : AC-3Формат/Информация : Audio Coding 3Расширение режима : CM (complete main)Параметр Endianness формата : BigИдентификатор кодека : A_AC3Продолжительность : 1 ч. 35 м.Вид битрейта : ПостоянныйБитрейт : 448 Кбит/секКаналы : 6 каналовРасположение каналов : Front: L C R, Side: L R, LFEЧастота : 48,0 КГцБитовая глубина : 16 битМетод сжатия : С потерямиРазмер потока : 304 Мбайт (2%)Заголовок : Dub, R5Язык : RussianDefault : ДаForced : Нет
Аудио #2Идентификатор : 3Формат : DTSФормат/Информация : Digital Theater SystemsРежим : 16Параметр Endianness формата : BigИдентификатор кодека : A_DTSПродолжительность : 1 ч. 35 м.Вид битрейта : ПостоянныйБитрейт : 1509 Кбит/секКаналы : 6 каналовРасположение каналов : Front: L C R, Side: L R, LFEЧастота : 48,0 КГцБитовая глубина : 24 битМетод сжатия : С потерямиРазмер потока : 1,00 Гбайт (7%)Язык : EnglishDefault : НетForced : Нет
Текст #1Идентификатор : 4Формат : UTF-8Идентификатор кодека : S_TEXT/UTF8Идентификатор кодека/Информация : UTF-8 Plain TextЗаголовок : ValeryPierseЯзык : RussianDefault : НетForced : Нет
Текст #2Идентификатор : 5Формат : UTF-8Идентификатор кодека : S_TEXT/UTF8Идентификатор кодека/Информация : UTF-8 Plain TextЯзык : EnglishDefault : НетForced : Нет
Меню00:00:00.000 : :Chapter 0100:08:42.833 : :Chapter 0200:13:58.291 : :Chapter 0300:22:19.083 : :Chapter 0400:27:43.666 : :Chapter 0500:33:20.500 : :Chapter 0600:39:21.000 : :Chapter 0700:45:14.208 : :Chapter 0800:49:32.666 : :Chapter 0900:54:12.875 : :Chapter 1000:58:36.625 : :Chapter 1101:02:02.875 : :Chapter 1201:07:54.041 : :Chapter 1301:15:28.333 : :Chapter 1401:23:23.791 : :Chapter 1501:31:28.125 : :Chapter 16

Скриншоты


Дополнительно

На диске оригинальный звук только DTS. И в данный момент о других дисках нету никакой информации

DISC INFO

Disc Title: The First Time
Disc Size: 23 543 535 671 bytes
Protection: AACS
BD-Java: No
BDInfo: 0.5.6
PLAYLIST REPORT:
Name: 00005.MPLS
Length: 1:35:00 (h:m:s)
Size: 18 868 561 920 bytes
Total Bitrate: 26,48 Mbps
VIDEO:
Codec Bitrate Description
----- ------- -----------
MPEG-4 AVC Video 20000 kbps 1080p / 24 fps / 16:9 / High Profile 4.1
AUDIO:
Codec Language Bitrate Description
----- -------- ------- -----------
DTS-HD Master Audio German 3351 kbps 5.1 / 48 kHz / 3351 kbps / 24-bit (DTS Core: 5.1 / 48 kHz / 1509 kbps / 24-bit)
DTS Audio English 1509 kbps 5.1 / 48 kHz / 1509 kbps / 24-bit
SUBTITLES:
Codec Language Bitrate Description
----- -------- ------- -----------
Presentation Graphics German 0,054 kbps
Presentation Graphics German 50,104 kbps
Скачать

Скачать торрент!

Как скачивать? · Что такое торрент? · Рейтинг и ограничения

Сайт не распространяет и не хранит электронные версии произведений, а лишь предоставляет доступ к создаваемому пользователями каталогу ссылок на торрент-файлы, которые содержат только списки хеш-сумм

[Профиль] [ЛС]
Показать сообщения:    
Ответить на тему

Текущее время: Сегодня 06:30

Часовой пояс: GMT + 4



Вы не можете начинать темы
Вы не можете отвечать на сообщения
Вы не можете редактировать свои сообщения
Вы не можете удалять свои сообщения
Вы не можете голосовать в опросах
Вы не можете прикреплять файлы к сообщениям
Вы не можете скачивать файлы