Эпик / Epic (Крис Уэдж / Chris Wedge) [2013, мультфильм, фэнтези, приключения, BDRip] Dub + Ukr + Eng + Sub (rus, eng)

Ответить на тему
 
Автор Сообщение

user ®

Стаж: 13 лет

Сообщений: 15041

Пост Пост: #1 от 12-Сен-2013 04:35

[Цитировать]

Эпик / Epic«Discover a world beyond your imagination»- Страна: США
Жанр: мультфильм, фэнтези, приключения, комедия, семейный
Год выпуска: 2013
Продолжительность: 01:42:29
Перевод: Профессиональный (полное дублирование)
Субтитры: Есть-Режиссер: Крис Уэдж / Chris Wedge-Роли озвучивали: Аманда Сайфред (Mary Katherine (M.K.), озвучка), Джош Хатчерсон (Nod, озвучка), Колин Фаррелл (Ronin, озвучка), Джейсон Судейкис (Bomba, озвучка), Азиз Ансари (Mub, озвучка), Крис О’Дауд (Grub, озвучка), Кристоф Вальц (Mandrake, озвучка), Стивен Тайлер (Nim Galuu, озвучка), Бейонсе Ноулз (Queen Tara, озвучка), Эллисон Биллс (Dandelion Jinn, озвучка), Блейк Андерсон (Dagda, озвучка), Джим Конрой (Race Announcer, дополнительные голоса, озвучка)-Роли дублировали: Юлия Савичева (Mary Katherine (M.K.)), Пётр Иващенко (Nod), Илья Исаев (Ronin), Никита Прозоровский (Mandrake), Диомид Виноградов (Dagda)-Описание: После долгой разлуки юная Мэри Кэтрин возвращается в дом, где отшельником живет ее отец, безумный профессор Бомба. Однако тот совсем не обращает внимания на дочь и одержим лишь одной идеей - изучить скрытый от посторонних глаз таинственный лесной мир. Девушка отказывается верить, что под ногами человечества идет вечная борьба между армиями, воюющими на сторонах добра и зла. Чудесным образом Мэри Кэтрин уменьшается в размерах и знакомится с маленькими воинами. Теперь от нее зависит спасение не только волшебного лесного, но и реального человеческого мира...-Рейтинг:

MPAA:- Рекомендуется присутствие родителей-Бюджет: $100 000 000
Сборы в США: $107 493 741
Сборы в России: $14 699 960
Сборы в мире: $255 593 741
Мировая премьера: 16 мая 2013
Релиз на DVD: 12 сентября 2013, «Двадцатый Век Фокс СНГ»
Релиз на Blu-ray: 12 сентября 2013, «Двадцатый Век Фокс СНГ»,--Семпл-Качество: BDRip
Формат: AVI
Видео: 720x304 (2.37:1), 23.976 fps, XviD MPEG-4 ~2140 kbps avg, 0.41 bit/pixel
Аудио: Русский - 48 kHz, AC3 Dolby Digital, 3/2 (L,C,R,l,r) + LFE ch, ~448 kbps
Аудио 2: Украинский - 48 kHz, AC3 Dolby Digital, 3/2 (L,C,R,l,r) + LFE ch, ~448 kbps
Аудио 3: Английски - 48 kHz, AC3 Dolby Digital, 3/2 (L,C,R,l,r) + LFE ch, ~448 kbps - Отдельным файлом
Субтитры: Русские, Английские-

MI

Format : AVIFormat/Info : Audio Video InterleaveFormat profile : OpenDMLFile size : 2.18 GiBDuration : 1h 42mnOverall bit rate : 3 043 KbpsWriting application : VirtualDubMod 1.5.10.3 | www.virtualdub-fr.org || (build 2550/release)Writing library : VirtualDubMod build 2550/release
VideoID : 0Format : MPEG-4 VisualFormat profile : Advanced Simple@L5Format settings, BVOP : 2Format settings, QPel : NoFormat settings, GMC : No warppointsFormat settings, Matrix : CustomCodec ID : XVIDCodec ID/Hint : XviDDuration : 1h 42mnBit rate : 2 130 KbpsWidth : 720 pixelsHeight : 304 pixelsDisplay aspect ratio : 2.35:1Frame rate : 23.976 fpsColor space : YUVChroma subsampling : 4:2:0Bit depth : 8 bitsScan type : ProgressiveCompression mode : LossyBits/(Pixel*Frame) : 0.406Stream size : 1.52 GiB (70%)Writing library : XviD 73
Audio #1ID : 1Format : AC-3Format/Info : Audio Coding 3Mode extension : CM (complete main)Format settings, Endianness : BigCodec ID : 2000Duration : 1h 42mnBit rate mode : ConstantBit rate : 448 KbpsChannel(s) : 6 channelsChannel positions : Front: L C R, Side: L R, LFESampling rate : 48.0 KHzBit depth : 16 bitsCompression mode : LossyStream size : 328 MiB (15%)Alignment : Split accross interleavesInterleave, duration : 42 ms (1.00 video frame)Interleave, preload duration : 500 ms
Audio #2ID : 2Format : AC-3Format/Info : Audio Coding 3Mode extension : CM (complete main)Format settings, Endianness : BigCodec ID : 2000Duration : 1h 42mnBit rate mode : ConstantBit rate : 448 KbpsChannel(s) : 6 channelsChannel positions : Front: L C R, Side: L R, LFESampling rate : 48.0 KHzBit depth : 16 bitsCompression mode : LossyStream size : 328 MiB (15%)Alignment : Split accross interleavesInterleave, duration : 42 ms (1.00 video frame)Interleave, preload duration : 500 ms

Знаете ли Вы, что...

  • Первый фильм Blue Sky Studios, в котором главным героем является девушка. Для студии Twentieth Century Fox это первый после «Анастасии» (1997) кинотеатральный анимационный фильм с девушкой в качестве главной героини.
  • Второй фильм Blue Sky Studios после фильма «Ледниковый период» (2002), где композитором не стал Джон Пауэлл.
  • Когда Мэри Кэтрин и ее отец воссоединяются в лесу, его глаза синие, в то время как в любых других сценах они зеленые.
Скачать

Скачать торрент! Эпик / Epic (Крис Уэдж / Chris Wedge) [2013, мультфильм, фэнтези, приключения, BDRip] Dub + Ukr + Eng + Sub (rus, eng)

Как скачивать? · Что такое торрент? · Рейтинг и ограничения

Сайт не распространяет и не хранит электронные версии произведений, а лишь предоставляет доступ к создаваемому пользователями каталогу ссылок на торрент-файлы, которые содержат только списки хеш-сумм

[Профиль] [ЛС]
Показать сообщения:    
Ответить на тему

Текущее время: Сегодня 22:40

Часовой пояс: GMT + 4



Вы не можете начинать темы
Вы не можете отвечать на сообщения
Вы не можете редактировать свои сообщения
Вы не можете удалять свои сообщения
Вы не можете голосовать в опросах
Вы не можете прикреплять файлы к сообщениям
Вы не можете скачивать файлы