Стартрек: Возмездие / Star Trek Into Darkness (Джей Джей Абрам / J.J. Abrams) [2013, США, фантастика, боевик, приключения, BDRip] Dub CEE + Original Eng + Subs

Ответить на тему
 
Автор Сообщение

user ®

Стаж: 7 лет 7 месяцев

Сообщений: 20008

Пост Пост: #1 от 12-Сен-2013 04:35

[Цитировать]

Стартрек: Возмездие / Star Trek Into Darkness
«Beyond the darkness, lies greatness.»
- Страна: Австралия, США / Bad Robot, Paramount Pictures, Skydance Productions
Жанр: фантастика, боевик, приключения
Год выпуска: 2013
Продолжительность: 02:12:05
Перевод: Профессиональный (дублированный) лицензия CEE
Cубтитры: Rus (forced+full+full Notabenoid) + Eng (full+SDH+SDH-Colored) внешние
Оригинальная аудиодорожка: английский
Режиссёр: Джей Джей Абрам / J.J. Abrams
В ролях: Крис Пайн, Закари Куинто, Бенедикт Камбербэтч, Саймон Пегг, Карл Урбан, Зои Салдана, Элис Ив, Джон Чо, Антон Ельчин, Питер Уэллер, Брюс Гринвуд, Леонард Нимой, Ноэль Кларк.
Описание: Вернувшись на Землю, команда корабля «Энтерпрайз» обнаруживает, что деятельность и принципы их организации подорваны изнутри. Флот скован необъяснимым ужасом и бездействует, пока мир все глубже погружается в бездну. Капитан Кирк берет на себя руководство операцией по поимке злодея, ответственного за этот хаос и способного уничтожить все человечество. В запутанной игре не на жизнь, а на смерть, любовь и дружба будут принесены в жертву ради единственного, что осталось у Кирка — его команды.-Рейтинг
imdb.com: 8.0 (174 183)
kinopoisk.ru: 7.971 (34 491)
MPAA: - детям до 13 лет просмотр не желателен-Сэмпл: http://multi-up.com/902489-Качество видео: BDRip [Star.Trek.Into.Darkness.2013.BDRemux.1080p.mkv]
Формат видео: AVI
Видео: XviD build 65, 720x304 (2.37:1), 23.976 fps, ~2240 kbps avg, 0.427 bit/pixel
Аудио 1: 48 kHz, AC3 Dolby Digital, 3/2 (L,C,R,l,r) + LFE ch, ~448 kbps avg (RUS)
Аудио 2: 48 kHz, AC3 Dolby Digital, 3/2 (L,C,R,l,r) + LFE ch, ~448 kbps avg (ENG)
Формат субтитров: softsub (SRT)
-

MediaInfo

General
Complete name : D:\Star.Trek.Into.Darkness.2013.2013.DUAL.BDRip.2,91Gb.XviD.AC3\Star.Trek.Into.Darkness.2013.2013.DUAL.BDRip.2,91Gb.XviD.AC3.avi
Format : AVI
Format/Info : Audio Video Interleave
Format profile : OpenDML
File size : 2.91 GiB
Duration : 2h 12mn
Overall bit rate : 3 153 Kbps
Writing application : VirtualDubModRus 1.5.10.2 (build 2542/release)
Writing library : VirtualDubMod build 2542/release
Video
ID : 0
Format : MPEG-4 Visual
Format profile : Advanced Simple@L5
Format settings, BVOP : 1
Format settings, QPel : No
Format settings, GMC : No warppoints
Format settings, Matrix : Custom
Codec ID : XVID
Codec ID/Hint : XviD
Duration : 2h 12mn
Bit rate : 2 240 Kbps
Width : 720 pixels
Height : 304 pixels
Display aspect ratio : 2.35:1
Frame rate : 23.976 fps
Color space : YUV
Chroma subsampling : 4:2:0
Bit depth : 8 bits
Scan type : Progressive
Compression mode : Lossy
Bits/(Pixel*Frame) : 0.427
Stream size : 2.07 GiB (71%)
Writing library : XviD 65
Audio #1
ID : 1
Format : AC-3
Format/Info : Audio Coding 3
Mode extension : CM (complete main)
Format settings, Endianness : Big
Codec ID : 2000
Duration : 2h 12mn
Bit rate mode : Constant
Bit rate : 448 Kbps
Channel(s) : 6 channels
Channel positions : Front: L C R, Side: L R, LFE
Sampling rate : 48.0 KHz
Bit depth : 16 bits
Compression mode : Lossy
Stream size : 423 MiB (14%)
Alignment : Split accross interleaves
Interleave, duration : 42 ms (1.00 video frame)
Interleave, preload duration : 500 ms
Title : RUS
Audio #2
ID : 2
Format : AC-3
Format/Info : Audio Coding 3
Mode extension : CM (complete main)
Format settings, Endianness : Big
Codec ID : 2000
Duration : 2h 12mn
Bit rate mode : Constant
Bit rate : 448 Kbps
Channel(s) : 6 channels
Channel positions : Front: L C R, Side: L R, LFE
Sampling rate : 48.0 KHz
Bit depth : 16 bits
Compression mode : Lossy
Stream size : 423 MiB (14%)
Alignment : Split accross interleaves
Interleave, duration : 42 ms (1.00 video frame)
Interleave, preload duration : 500 ms
Title : ENG

Скриншоты

Скачать

Скачать торрент!

Как скачивать? · Что такое торрент? · Рейтинг и ограничения

Сайт не распространяет и не хранит электронные версии произведений, а лишь предоставляет доступ к создаваемому пользователями каталогу ссылок на торрент-файлы, которые содержат только списки хеш-сумм

[Профиль] [ЛС]
Показать сообщения:    
Ответить на тему

Текущее время: Сегодня 10:02

Часовой пояс: GMT + 4



Вы не можете начинать темы
Вы не можете отвечать на сообщения
Вы не можете редактировать свои сообщения
Вы не можете удалять свои сообщения
Вы не можете голосовать в опросах
Вы не можете прикреплять файлы к сообщениям
Вы не можете скачивать файлы