Приключения Шерлока Холмса: Этюд в багровых тонах / Sherlock Holmes and a Study in Scarlet (Алекс Николас / Alex Nicholas, Иэн Маккензи / Ian MacKenzie) [1983 г., мультфильм, приключения, семейный, VHSRip] DUB

Ответить на тему
 
Автор Сообщение

user ®

Стаж: 13 лет

Сообщений: 15041

Пост Пост: #1 от 12-Сен-2013 01:25

[Цитировать]

Приключения Шерлока Холмса: Этюд в багровых тонах
Sherlock Holmes and a Study in Scarlet
Год выпуска: 1983
Страна: Австралия
Выпущено: Burbank Films Australia
Жанр: мультфильм, приключения, семейный
Продолжительность: 00:50:02
Перевод: Профессиональный (дублированный) | Варус Видео
Русские субтитры: нет-Режиссер: Алекс Николас / Alex Nicholas, Иэн Маккензи / Ian MacKenzie-Описание: Анимационная, цветная экранизация всемирно известного романа Артура Конан Дойля о Шерлоке Холмсе "Этюд в багровых тонах". Это — первое дело Холмса, описанное его другом и компаньоном доктором Ватсоном. Череда таинственных убийств, следующих друг за другом, ставит в тупик лондонскую полицию. Пользуясь своим излюбленным орудием — методом дедукции, Шерлок Холмс находит убийцу и раскрывает драматическую историю кровавой, но справедливой мести. Адаптация будет интересна и взрослым, и детям.-Релиз:
Доп. информация:
Оцифровал и сделал VHSRip - bora86bora.
СЭМПЛ
Качество: VHSRip
Формат: AVI
Видео: 672x512 (1.31:1), 25 fps, XviD build 65 ~1735 kbps avg, 0.20 bit/pixel
Аудио: 48 kHz, AC3 Dolby Digital, 1/0 (L,R) ch, ~192.00 kbps - Дубляж | "Варус Видео"
Размер: 693.39 Mb

Cкриншоты

MediaInfo

Общее
Полное имя : ...\Sherlock.Holmes.and.a.Study.in.Scarlet.(1983).VHSRip.rutracker.avi
Формат : AVI
Формат/Информация : Audio Video Interleave
Размер файла : 693 Мбайт
Продолжительность : 50 м.
Общий поток : 1937 Кбит/сек
Название фильма : Приключения Шерлока Холмса: Этюд в багровых тонах (1983)
Режиссёр : bora86bora
Программа кодирования : VirtualDubMod 1.5.10.3 | www.virtualdub-fr.org || (build 2550/release)
Библиотека кодирования : VirtualDubMod build 2550/release
Правообладатель : RG Multfilmy / ***
Видео
Идентификатор : 0
Формат : MPEG-4 Visual
Профиль формата : Advanced Simple@L5
Параметр BVOP формата : 1
Параметр QPel формата : Нет
Параметр GMC формата : Без точки перехода
Параметр матрицы формата : Default (H.263)
Идентификатор кодека : XVID
Идентификатор кодека/Подсказка : XviD
Продолжительность : 50 м.
Битрейт : 1735 Кбит/сек
Ширина : 672 пикселя
Высота : 512 пикселей
Соотношение сторон : 4:3
Частота кадров : 25,000 кадров/сек
Цветовое пространство : YUV
Субдискретизация насыщенности : 4:2:0
Битовая глубина : 8 бит
Тип развёртки : Прогрессивная
Метод сжатия : С потерями
Бит/(Пиксели*Кадры) : 0.202
Размер потока : 621 Мбайт (90%)
Библиотека кодирования : XviD 65
Аудио
Идентификатор : 1
Формат : AC-3
Формат/Информация : Audio Coding 3
Расширение режима : CM (complete main)
Параметр Endianness формата : Big
Идентификатор кодека : 2000
Продолжительность : 50 м.
Вид битрейта : Постоянный
Битрейт : 192 Кбит/сек
Каналы : 2 канала
Расположение каналов : Front: L R
Частота : 48,0 КГц
Битовая глубина : 16 бит
Метод сжатия : С потерями
Размер потока : 68,7 Мбайт (10%)
Выравнивание : Разделение по промежуткам
Продолжительность промежутка : 40 мс. (1,00 видеокадр)
Время предзагрузки промежутка : 500 мс.
Скачать

Скачать торрент! Приключения Шерлока Холмса: Этюд в багровых тонах / Sherlock Holmes and a Study in Scarlet (Алекс Николас / Alex Nicholas, Иэн Маккензи / Ian MacKenzie) [1983 г., мультфильм, приключения, семейный, VHSRip] DUB

Как скачивать? · Что такое торрент? · Рейтинг и ограничения

Сайт не распространяет и не хранит электронные версии произведений, а лишь предоставляет доступ к создаваемому пользователями каталогу ссылок на торрент-файлы, которые содержат только списки хеш-сумм

[Профиль] [ЛС]
Показать сообщения:    
Ответить на тему

Текущее время: Сегодня 19:30

Часовой пояс: GMT + 4



Вы не можете начинать темы
Вы не можете отвечать на сообщения
Вы не можете редактировать свои сообщения
Вы не можете удалять свои сообщения
Вы не можете голосовать в опросах
Вы не можете прикреплять файлы к сообщениям
Вы не можете скачивать файлы